<?xml version="1.0" standalone="no"?>
<!DOCTYPE svg PUBLIC "-//W3C//DTD SVG 1.1//EN" "http://www.w3.org/Graphics/SVG/1.1/DTD/svg11.dtd" >
<svg xmlns="http://www.w3.org/2000/svg" xmlns:xlink="http://www.w3.org/1999/xlink" version="1.1">
<metadata>
Created by FontForge 20170731 at Sun Aug 23 19:36:45 2015
 By Aleksey,,,
Copyright (c) BPG InfoTech, 2008. All rights reserved.
</metadata>
<defs>
<font id="BPGNinoMtavruli" horiz-adv-x="983" >
  <font-face 
    font-family="BPG Nino Mtavruli"
    font-weight="400"
    font-style="italic"
    font-stretch="normal"
    units-per-em="2048"
    panose-1="2 0 5 6 0 0 0 2 0 4"
    ascent="1638"
    descent="-410"
    x-height="1020"
    cap-height="1502"
    bbox="-24 -406 2311 1661"
    underline-thickness="49"
    underline-position="-340"
    slope="-25"
    unicode-range="U+000D-25FC"
  />
<missing-glyph horiz-adv-x="1735" 
d="M309 98v1348h1200v-1348h-1200zM338 137h1145v1270h-1145v-1270z" />
    <glyph glyph-name=".notdef" horiz-adv-x="1735" 
d="M309 98v1348h1200v-1348h-1200zM338 137h1145v1270h-1145v-1270z" />
    <glyph glyph-name=".null" horiz-adv-x="0" 
 />
    <glyph glyph-name="nonmarkingreturn" horiz-adv-x="2048" 
 />
    <glyph glyph-name="uni000D" unicode="&#xd;" horiz-adv-x="643" 
 />
    <glyph glyph-name="space" unicode=" " horiz-adv-x="400" 
 />
    <glyph glyph-name="exclam" unicode="!" horiz-adv-x="557" 
d="M213 1235v2v369h166v-369l-53 -727h-58zM219 154v145h152v-145h-152z" />
    <glyph glyph-name="quotedbl" unicode="&#x22;" horiz-adv-x="616" 
d="M106 1456v174h127v-172l-36 -217h-50zM414 1458v172h127v-174l-43 -215h-41z" />
    <glyph glyph-name="numbersign" unicode="#" horiz-adv-x="1806" 
d="M57 385h90q3 -27 15.5 -49.5t30 -38t37.5 -24.5t38 -9q53 0 88 32t35 97v1061h-201v100h304l591 -1181v1007q0 48 18 90.5t47.5 75t68 51.5t79.5 19q42 0 82 -17t72 -47t52.5 -70.5t25.5 -88.5h-103q-2 21 -13.5 43.5t-29.5 40.5t-40.5 29.5t-45.5 11.5
q-25 0 -46.5 -12.5t-37 -32t-24 -44t-8.5 -49.5v-1224h-101l-594 1192v-955q0 -45 -15.5 -87.5t-43.5 -75.5t-67 -53.5t-85 -20.5q-44 0 -82 19t-67 51t-47 73t-23 86zM1307 825q0 47 15 91t44.5 78.5t72 55.5t97.5 21q58 0 102.5 -21t75 -56t46.5 -79.5t16 -91.5
q0 -52 -16 -97.5t-46.5 -79.5t-75 -53.5t-102.5 -19.5q-54 0 -96.5 20t-72 54.5t-45 80.5t-15.5 97zM1323 221v98h434v-98h-434zM1397 827q0 -32 10 -59t28.5 -47t44 -31.5t56.5 -11.5q74 0 110.5 41t36.5 106q0 28 -10.5 54.5t-29.5 47t-46 32.5t-61 12q-31 0 -56.5 -12.5
t-44 -32.5t-28.5 -46t-10 -53z" />
    <glyph glyph-name="dollar" unicode="$" horiz-adv-x="999" 
d="M86 924q0 35 12 67.5t39.5 61.5t73.5 55.5t115 50.5q-41 33 -68.5 63t-44.5 57t-24 51.5t-7 47.5q0 50 22 95.5t63.5 80.5t100 55.5t130.5 20.5q158 0 246.5 -66.5t117.5 -187.5l-114 -14q-12 54 -33.5 90t-51 57.5t-67.5 30t-84 8.5t-87.5 -12t-73 -33.5t-50 -50
t-18.5 -61.5q0 -26 9.5 -52.5t31.5 -48.5q13 -13 42 -34t69 -46.5t90 -54.5t106 -59q62 -34 115.5 -67.5t82.5 -53.5q57 -40 88 -94.5t31 -116.5q0 -41 -17.5 -83.5t-43.5 -68.5q-36 -38 -180 -96q92 -63 133 -121.5t41 -124.5q0 -51 -24 -98t-69 -83.5t-109 -58.5t-144 -22
q-161 0 -256.5 71.5t-126.5 199.5l112 16q26 -109 93 -155t178 -46q52 0 96 14t75.5 38t49.5 56t18 68q0 23 -11.5 49t-31.5 46q-32 32 -116.5 89.5t-215.5 129.5q-68 37 -115.5 66t-76.5 55q-24 22 -46 46.5t-38.5 52t-26.5 57.5t-10 63zM182 938q0 -35 10.5 -63.5t39 -57
t79 -61t129.5 -76.5q66 -37 120 -68t102 -57l22 -2q86 37 126 86t40 92q0 26 -18.5 59.5t-40.5 61.5q-25 29 -85 67t-139 85q-59 34 -110.5 66t-96.5 67q-48 -26 -82 -50.5t-55.5 -49t-31 -49t-9.5 -50.5z" />
    <glyph glyph-name="percent" unicode="%" horiz-adv-x="1653" 
d="M94 1264q0 73 20 138.5t58.5 114t96 77t132.5 28.5q70 0 129.5 -23.5t102.5 -70t67.5 -115.5t24.5 -160q0 -90 -25.5 -159t-68.5 -115.5t-101 -70t-122 -23.5q-68 0 -125.5 23t-99.5 70t-65.5 118t-23.5 168zM197 1243q0 -77 16 -131t44.5 -88.5t68 -50t86.5 -15.5t86 17
t67.5 53.5t44 94t15.5 139.5q0 79 -16.5 133.5t-45.5 88t-68 48t-83 14.5q-45 0 -84.5 -13t-68.5 -47t-45.5 -93t-16.5 -150zM365 100l864 1522h84l-860 -1522h-88zM950 477q0 72 19.5 137.5t58.5 114.5t97 78t135 29q67 0 126 -25t103 -72.5t69 -116.5t25 -157
q0 -89 -25.5 -157.5t-69.5 -114.5t-102.5 -69.5t-123.5 -23.5q-69 0 -126 22t-98.5 68t-64.5 117.5t-23 169.5zM1049 459q0 -80 17.5 -135t47.5 -89.5t69 -49.5t81 -15q46 0 85.5 17t68.5 53.5t46 94.5t17 140q0 78 -17 132.5t-46.5 89t-68.5 50t-83 15.5q-48 0 -88 -15
t-68.5 -50.5t-44.5 -93.5t-16 -144z" />
    <glyph glyph-name="ampersand" unicode="&#x26;" horiz-adv-x="1411" 
d="M106 553q0 128 101 235.5t305 198.5q-41 58 -77.5 97t-64 73.5t-43.5 72t-16 93.5q0 64 29.5 120t80 97.5t118.5 65.5t145 24q78 0 142.5 -24t110.5 -64t71.5 -92.5t25.5 -110.5q0 -50 -24.5 -97.5t-70 -92.5t-110 -88.5t-143.5 -85.5q11 -15 41 -49t69.5 -77t84 -90.5
t83.5 -89t67.5 -72.5t37.5 -42q37 66 62.5 131.5t44.5 122.5l114 -31q-25 -88 -60 -164.5t-77 -138.5q31 -35 59.5 -67t56.5 -62.5t58 -59t66 -55.5l-86 -90q-26 16 -55.5 42.5t-61 58t-64 65.5t-63.5 66l-16 -35q-206 -199 -451 -199q-107 0 -197 33t-155 89t-101.5 131.5
t-36.5 160.5zM231 559q1 -51 27 -108.5t73.5 -107t114.5 -82t150 -32.5q48 0 102 12.5t108 39t105.5 67t96.5 96.5l-433 474q-79 -45 -143 -83.5t-109 -78.5t-69.5 -87t-22.5 -110zM430 1339q0 -18 9 -44t32 -63.5t62.5 -88t101.5 -117.5q84 46 138.5 87t86.5 79t45 73
t13 70q0 43 -19.5 82.5t-52.5 70t-76.5 48.5t-91.5 18q-44 0 -88 -16.5t-79.5 -45t-58 -68t-22.5 -85.5z" />
    <glyph glyph-name="quotesingle" unicode="'" horiz-adv-x="332" 
d="M109 1452v178h127v-180l-39 -211h-50z" />
    <glyph glyph-name="parenleft" unicode="(" horiz-adv-x="737" 
d="M168 625q0 128 24 253t66 234q21 57 55.5 123t76.5 133.5t88 134t91 123.5h70q-62 -91 -101.5 -163.5t-58.5 -110.5q-16 -33 -33.5 -74t-33.5 -83t-29.5 -83t-22.5 -74q-24 -97 -39.5 -205t-15.5 -208q0 -246 84.5 -495t251.5 -505h-72q-77 100 -151 216t-129 243
q-56 128 -88.5 267t-32.5 274z" />
    <glyph glyph-name="parenright" unicode=")" horiz-adv-x="737" 
d="M186 -371q172 256 255 505t83 495q0 47 -3.5 101t-10.5 109t-17 107t-22 96q-8 30 -22 70.5t-30 83t-32.5 83.5t-30.5 73q-18 43 -60.5 114t-105.5 164h70q45 -60 91 -125.5t88 -132t76.5 -132t57.5 -124.5q44 -112 65 -234.5t21 -252.5q0 -138 -25.5 -278t-88.5 -265
q-62 -125 -132.5 -241.5t-152.5 -215.5h-74z" />
    <glyph glyph-name="asterisk" unicode="*" horiz-adv-x="1118" 
d="M158 1061q0 7 2 15t8 15t17.5 11t29.5 4h14l273 -29l4 13l-211 174q-15 11 -24 25t-9 28q0 16 12 29q9 8 17.5 10t15.5 2h10q11 0 20.5 -10.5t18.5 -22.5l174 -211l13 4l-29 273q-1 5 -1 13q0 18 4.5 29.5t11 18t14.5 8.5t16 2t16 -2t14.5 -8t10.5 -17.5t4 -29.5v-14
l-29 -273l13 -4l174 211q9 12 18.5 22.5t20.5 10.5h10q7 0 15.5 -2t17.5 -10q8 -9 10 -17.5t2 -15.5v-10q0 -11 -10 -20.5t-23 -18.5l-211 -174l4 -13l273 29h13q18 0 29.5 -4t18 -11t9 -15t2.5 -15q0 -8 -2 -16.5t-8.5 -15t-18 -10.5t-29.5 -4h-6.5t-7.5 1l-273 28l-4 -12
l211 -174q13 -9 23 -18.5t10 -20.5v-10q0 -7 -2 -16t-10 -17q-13 -12 -29 -12q-14 0 -28 9t-25 24l-174 211l-13 -4l29 -273v-15q0 -36 -14 -46.5t-31 -10.5q-8 0 -16 2t-14.5 8.5t-11 18t-4.5 29.5q0 9 1 14l29 273l-13 4l-174 -211q-12 -15 -25.5 -24t-27.5 -9
q-17 0 -29 12t-12 29q0 14 9 27.5t24 25.5l211 174l-4 12l-273 -28q-5 -1 -15 -1q-36 0 -46 14.5t-10 31.5z" />
    <glyph glyph-name="plus" unicode="+" horiz-adv-x="1014" 
d="M117 600v96h368v336h97v-336h368v-96h-368v-336h-97v336h-368z" />
    <glyph glyph-name="comma" unicode="," horiz-adv-x="502" 
d="M143 -162q37 42 62.5 77.5t41 67.5t22.5 61t7 57q0 12 -1 24t-3 24q-5 -2 -16 -2h-10q-35 0 -61.5 20.5t-26.5 57.5q0 25 8.5 43t22 30t30 17.5t33.5 5.5q48 0 77 -33t29 -110q0 -48 -12.5 -97.5t-36 -97.5t-57.5 -93.5t-76 -84.5z" />
    <glyph glyph-name="hyphen" unicode="-" horiz-adv-x="737" 
d="M45 526v136h684v-136h-684z" />
    <glyph glyph-name="period" unicode="." horiz-adv-x="530" 
d="M172 246q0 18 7 35t20 29.5t30 20t37 7.5q39 0 65.5 -26.5t26.5 -65.5q0 -42 -27.5 -68.5t-64.5 -26.5q-19 0 -36 7.5t-30 20.5t-20.5 30t-7.5 37z" />
    <glyph glyph-name="slash" unicode="/" horiz-adv-x="586" 
d="M29 139l469 1491h84l-463 -1491h-90z" />
    <glyph glyph-name="zero" unicode="0" 
d="M49 864q0 363 111 536t332 173q118 0 202 -40.5t135 -127.5q54 -87 79.5 -220.5t25.5 -320.5t-25.5 -322t-79.5 -223q-98 -165 -337 -165q-221 0 -332 173t-111 537zM156 864q0 -134 20 -240.5t62 -187.5q45 -81 109 -125.5t145 -46.5q158 0 251 170q44 82 64 188t20 242
q0 134 -17 244t-54 190q-38 79 -105 122.5t-159 43.5q-88 0 -152.5 -43.5t-108.5 -122.5q-38 -78 -56.5 -186t-18.5 -248z" />
    <glyph glyph-name="one" unicode="1" horiz-adv-x="655" 
d="M143 1270v110q137 3 181 50v-3q20 23 30.5 56.5t12.5 89.5h104v-1419h-104v1116h-224z" />
    <glyph glyph-name="two" unicode="2" 
d="M49 154v122l670 703q45 45 66.5 96t21.5 105q0 51 -15 97t-47 83q-48 56 -113 80t-140 24q-158 0 -252 -102q-35 -38 -56.5 -88t-27.5 -98h-103q3 110 101 247q100 150 338 150q43 0 91 -7.5t93 -22t84.5 -36t66.5 -49.5q28 -25 48 -58.5t33 -72.5t19.5 -81.5t6.5 -86.5
q0 -78 -31 -143t-88 -121l-631 -631h750v-110h-885z" />
    <glyph glyph-name="three" unicode="3" horiz-adv-x="1001" 
d="M68 571h104q6 -62 30 -120t64 -99q47 -45 108.5 -66.5t135.5 -21.5q63 0 120.5 13t108.5 40q51 28 79 84.5t28 135.5q0 61 -23.5 113t-68.5 87q-82 63 -219 72v109q65 5 118 19.5t97 45.5q96 69 96 209q0 57 -22 108t-68 89q-45 37 -108 56t-138 19q-163 0 -254 -102
q-37 -40 -57.5 -89t-26.5 -97h-102q5 57 28.5 117.5t71.5 129.5q51 75 134.5 112.5t205.5 37.5q198 0 319 -100t121 -281q0 -58 -20 -110.5t-52.5 -96t-74.5 -75.5t-86 -50q44 -14 86 -43.5t74.5 -71.5t52.5 -95t20 -113q0 -104 -28 -176t-88 -115q-62 -45 -143.5 -68.5
t-180.5 -23.5q-91 0 -172.5 30.5t-144.5 85.5q-62 54 -92.5 126t-32.5 175z" />
    <glyph glyph-name="four" unicode="4" 
d="M49 643v131l520 799h115v-817h250v-113h-250v-489h-102v489h-533zM166 756h416v663z" />
    <glyph glyph-name="five" unicode="5" 
d="M49 868v684h838v-108h-731v-508q138 147 336 147q95 0 172.5 -33.5t142.5 -99.5q127 -127 127 -334q0 -103 -31 -185t-90 -148q-117 -129 -321 -129q-91 0 -167.5 20t-127.5 57q-44 32 -82 76.5t-58 95.5l99 43q48 -92 128 -137t208 -45q161 0 249 94q47 51 66.5 114
t19.5 144q0 76 -21.5 139.5t-68.5 112.5q-48 53 -109.5 78t-135.5 25q-60 0 -110.5 -12t-96.5 -33q-44 -20 -76.5 -47t-50.5 -62z" />
    <glyph glyph-name="six" unicode="6" 
d="M49 864q0 178 30 309t87 222q57 89 136.5 133.5t189.5 44.5q85 0 148 -15t114 -42q43 -23 81.5 -54.5t73.5 -75.5l-69 -55q-62 60 -150.5 96.5t-197.5 36.5q-147 0 -236 -121q-86 -119 -98 -385q158 125 334 125q95 0 173.5 -34.5t143.5 -100.5q62 -65 93.5 -146.5
t31.5 -185.5q0 -198 -125 -329q-63 -66 -141.5 -99.5t-175.5 -33.5q-229 0 -332 186q-54 97 -82.5 227t-28.5 297zM160 825q0 -130 22.5 -231.5t69.5 -173.5q48 -78 109.5 -117t130.5 -39q75 0 134 21t107 67q50 48 72 113t22 151q0 87 -22.5 151t-67.5 112t-105 70t-140 22
q-45 0 -92 -7t-83 -20q-38 -14 -76.5 -44t-80.5 -75z" />
    <glyph glyph-name="seven" unicode="7" 
d="M29 1423v109h884v-127l-714 -1251h-129l721 1269h-762z" />
    <glyph glyph-name="eight" unicode="8" 
d="M49 537q0 228 219 340q-85 69 -129.5 148t-44.5 167q0 97 27 166t84 119q57 48 127.5 72t163.5 24q81 0 148.5 -25.5t127.5 -74.5q62 -51 89.5 -119.5t27.5 -161.5q0 -97 -44 -174.5t-132 -140.5q221 -114 221 -340q0 -82 -30.5 -147.5t-92.5 -121.5
q-62 -55 -140.5 -84.5t-178.5 -29.5t-178.5 27.5t-143.5 86.5q-60 56 -90.5 121.5t-30.5 147.5zM156 537q0 -146 94 -209q91 -64 242 -64q77 0 139 17t105.5 51.5t67 85.5t23.5 119t-20 120t-64 86q-42 32 -103.5 49t-147.5 17q-89 0 -152.5 -14.5t-104 -47t-60 -84.5
t-19.5 -126zM201 1192q0 -60 17.5 -107t51.5 -86q37 -40 91.5 -60.5t130.5 -20.5q130 0 208 75q39 37 60.5 88t21.5 111q0 54 -17.5 100t-55.5 88q-75 84 -217 84q-73 0 -125.5 -21t-87.5 -59q-39 -38 -58.5 -87t-19.5 -105z" />
    <glyph glyph-name="nine" unicode="9" 
d="M49 1110q0 99 31 182.5t94 149.5q125 131 318 131q57 0 105 -12.5t88.5 -37t74.5 -60t65 -81.5q32 -49 53 -105.5t33.5 -121t17.5 -137.5t5 -154q0 -349 -112.5 -529.5t-329.5 -180.5q-81 0 -147 13t-116 42q-38 23 -78.5 57.5t-72.5 69.5l67 61q62 -63 149.5 -98
t197.5 -35q146 0 235 121q42 57 71 178.5t46 304.5q-189 -225 -352 -225q-98 0 -176.5 35t-141.5 98q-65 66 -95 149t-30 185zM156 1110q0 -85 21.5 -150.5t68.5 -111.5q48 -50 107.5 -71t138.5 -21q51 0 102.5 18t99.5 53q51 38 82 100t31 150q0 91 -19 160.5t-65 122.5
q-45 51 -103.5 77.5t-127.5 26.5q-75 0 -134 -22t-108 -70q-94 -87 -94 -262z" />
    <glyph glyph-name="colon" unicode=":" horiz-adv-x="530" 
d="M172 247q0 18 7 35t20 29.5t30 20t37 7.5q39 0 65.5 -26.5t26.5 -65.5q0 -42 -27.5 -68.5t-64.5 -26.5q-19 0 -36 7.5t-30 20.5t-20.5 30t-7.5 37zM172 834q0 18 7 35t20 29.5t30 20t37 7.5q39 0 65.5 -26.5t26.5 -65.5q0 -20 -7.5 -37t-20 -30t-29.5 -20t-35 -7
q-19 0 -36 7.5t-30 20.5t-20.5 30t-7.5 36z" />
    <glyph glyph-name="semicolon" unicode=";" horiz-adv-x="502" 
d="M143 -163q37 42 62.5 77.5t41 67.5t22.5 61t7 57q0 12 -1 24t-3 24q-5 -2 -16 -2h-10q-35 0 -61.5 20.5t-26.5 57.5q0 25 8.5 43t22 30t30 17.5t33.5 5.5q48 0 77 -33t29 -110q0 -48 -12.5 -97.5t-36 -97.5t-57.5 -93.5t-76 -84.5zM158 830q0 18 7 35t20 29.5t30 20
t37 7.5q39 0 65.5 -26.5t26.5 -65.5q0 -20 -7.5 -37t-20 -30t-29.5 -20t-35 -7q-19 0 -36 7.5t-30 20.5t-20.5 30t-7.5 36z" />
    <glyph glyph-name="less" unicode="&#x3c;" horiz-adv-x="1014" 
d="M113 569v113l837 322v-97l-747 -280l747 -283v-98z" />
    <glyph glyph-name="equal" unicode="=" horiz-adv-x="1014" 
d="M117 350v94h833v-94h-833zM117 725v96h833v-96h-833z" />
    <glyph glyph-name="greater" unicode="&#x3e;" horiz-adv-x="1014" 
d="M113 242v102l747 283l-747 278v99l837 -318v-117z" />
    <glyph glyph-name="question" unicode="?" horiz-adv-x="827" 
d="M90 1280q0 67 29 126t77.5 103t112 69.5t133.5 25.5q81 0 146 -34.5t111 -91t71 -128t25 -146.5q0 -57 -15.5 -105t-44 -93.5t-69 -91.5t-91.5 -99q-30 -32 -50.5 -53.5t-33 -38.5t-17.5 -33.5t-5 -38.5v-159h-98v159q0 34 11.5 66t31.5 63t48.5 62t63.5 65
q79 76 123.5 146t44.5 151q0 51 -16 106t-47.5 101.5t-78.5 76.5t-110 30q-47 0 -91.5 -20t-79.5 -53.5t-56.5 -76.5t-21.5 -88q0 -29 8 -59.5t24.5 -55t41.5 -40t59 -15.5q52 0 78 25.5t26 81.5q0 15 -2 38t-10 52h53q17 -41 24 -72.5t7 -58.5q0 -78 -45 -125t-131 -47
q-56 0 -99.5 24.5t-74 63.5t-46.5 88.5t-16 99.5zM322 250q0 43 28 73.5t76 30.5q45 0 68.5 -30.5t23.5 -73.5q0 -40 -23.5 -68t-68.5 -28q-48 0 -76 27t-28 69z" />
    <glyph glyph-name="at" unicode="@" horiz-adv-x="1628" 
d="M86 614q0 309 119 557q54 124 128.5 215t162.5 148t193.5 87t217.5 30q198 0 353 -95t251 -278q47 -93 72 -193.5t25 -212.5q0 -154 -44 -286t-132 -248q-73 -96 -150.5 -142t-161.5 -46q-74 0 -106 36t-37 117l-39 10q-57 -81 -120.5 -121t-119.5 -40q-55 0 -103.5 25
t-86.5 79q-47 66 -72.5 150.5t-25.5 187.5q0 85 17.5 166.5t51.5 165.5q37 75 79.5 135t88.5 98q50 32 95 52t87 20q31 0 66 -15.5t69.5 -45.5t67 -75t60.5 -104q4 18 9.5 45t11 55.5t9.5 57t6 49.5h111l-115 -666q-15 -74 -21.5 -114t-6.5 -49q0 -20 6.5 -37t17.5 -29.5
t25.5 -19.5t30.5 -7q29 0 65 22t78 60q43 39 82 92.5t63 122.5h-2q62 144 62 304q0 92 -21 178t-61 162q-44 75 -101 135.5t-127 103.5q-68 42 -149.5 64t-165.5 22q-202 0 -363.5 -106.5t-267.5 -321.5q-46 -108 -73 -228t-27 -257q0 -194 53 -344t151 -253t238.5 -156.5
t315.5 -53.5q103 0 193 20t173 64q75 42 135.5 99.5t100.5 125.5h110q-26 -54 -63.5 -104.5t-85.5 -98.5q-56 -54 -119 -95.5t-131 -70.5q-71 -26 -148 -40.5t-165 -14.5q-260 0 -442.5 108.5t-288.5 309.5q-53 99 -81 222.5t-28 266.5zM522 582q0 -76 17.5 -134t46.5 -100
q31 -43 67 -65.5t76 -22.5q34 0 70 16.5t73 47.5q41 34 74 82.5t62 117.5v-2q24 66 36.5 136t12.5 141q0 153 -62 233q-63 88 -155 88q-35 0 -71.5 -16t-70.5 -45t-65.5 -79.5t-57.5 -119.5q-26 -71 -39.5 -141.5t-13.5 -136.5z" />
    <glyph glyph-name="A" unicode="A" horiz-adv-x="1412" 
d="M129 146l514 1356h127l512 -1356h-112l-143 376h-640l-144 -376h-114zM429 634h561l-283 739z" />
    <glyph glyph-name="B" unicode="B" 
d="M129 146v1356h356q100 0 168 -24t112 -75q43 -51 65.5 -117.5t22.5 -147.5q0 -42 -16.5 -79t-44 -69t-62 -58.5t-70.5 -46.5q36 -18 70.5 -47.5t62 -69.5t44 -88.5t16.5 -104.5q0 -221 -89 -325t-279 -104h-356zM245 262h251q50 0 94 13t77 45q34 32 51 90t17 134
t-16.5 131t-51.5 88q-35 35 -80.5 51t-101.5 16h-240v-568zM245 946h240q57 0 101.5 15.5t80.5 46.5q35 30 51.5 69.5t16.5 87.5q0 46 -16.5 87t-51.5 74q-32 30 -77 47t-105 17h-240v-444z" />
    <glyph glyph-name="C" unicode="C" horiz-adv-x="1219" 
d="M129 823q0 284 142 482q142 197 365 197q94 0 167.5 -21t127.5 -58q53 -36 91.5 -78t66.5 -98l-99 -51q-57 99 -140 146.5t-199 47.5q-94 0 -169 -45.5t-128 -129.5q-56 -86 -82.5 -183t-26.5 -209q0 -105 27.5 -204t81.5 -184q53 -85 128 -129t169 -44q66 0 118 8t96 29
q37 17 68.5 50t60.5 87l93 -38q-29 -60 -65.5 -106.5t-81.5 -79.5q-48 -34 -119.5 -50t-169.5 -16q-117 0 -214.5 49t-165.5 137q-71 92 -106.5 217t-35.5 274z" />
    <glyph glyph-name="D" unicode="D" horiz-adv-x="1166" 
d="M129 146v1356h354q115 0 214 -38.5t180 -118.5q82 -78 121.5 -205.5t39.5 -316.5q0 -355 -168 -517q-163 -160 -387 -160h-354zM245 262h238q178 0 308 127q66 63 98.5 173t32.5 261q0 144 -29 250.5t-85 177t-137.5 105t-187.5 34.5h-238v-1128z" />
    <glyph glyph-name="E" unicode="E" horiz-adv-x="1060" 
d="M129 146v1356h802v-112h-686v-509h467v-112h-467v-507h686v-116h-802z" />
    <glyph glyph-name="F" unicode="F" horiz-adv-x="1004" 
d="M129 146v1356h802v-112h-686v-509h467v-112h-467v-623h-116z" />
    <glyph glyph-name="G" unicode="G" horiz-adv-x="1219" 
d="M129 823q0 284 142 482q142 197 365 197q94 0 167.5 -21t127.5 -58q53 -36 91.5 -78t66.5 -98l-99 -51q-57 99 -140 146.5t-199 47.5q-94 0 -169 -45.5t-128 -129.5q-56 -86 -82.5 -183t-26.5 -209q0 -105 28.5 -204t80.5 -184q54 -88 148 -130.5t228 -42.5q140 0 251 99
v306h-301v112h409v-471q-36 -38 -79.5 -68t-91 -51t-96 -32t-94.5 -11q-157 0 -273 48.5t-184 137.5q-71 93 -106.5 217.5t-35.5 273.5z" />
    <glyph glyph-name="H" unicode="H" horiz-adv-x="1117" 
d="M129 146v1356h114v-621h629v621h116v-1356h-116v623h-629v-623h-114z" />
    <glyph glyph-name="I" unicode="I" horiz-adv-x="373" 
d="M129 146v1356h114v-1356h-114z" />
    <glyph glyph-name="J" unicode="J" horiz-adv-x="997" 
d="M129 490h116q5 -118 66.5 -173t189.5 -55q69 0 117.5 17t79 49t44.5 78.5t14 105.5v990h112v-990q0 -93 -25 -162.5t-73 -111.5q-53 -48 -119 -70t-150 -22q-78 0 -149.5 26t-122.5 71q-41 35 -68 100.5t-32 146.5z" />
    <glyph glyph-name="K" unicode="K" horiz-adv-x="1134" 
d="M129 146v1356h116v-706l559 706h136l-470 -605l534 -751h-139l-471 658l-149 -196v-462h-116z" />
    <glyph glyph-name="L" unicode="L" horiz-adv-x="1060" 
d="M129 146v1356h116v-1240h686v-116h-802z" />
    <glyph glyph-name="M" unicode="M" horiz-adv-x="1462" 
d="M129 146v1356h126l477 -779l477 779h124v-1356h-113v1159l-488 -795h-2l-485 795v-1159h-116z" />
    <glyph glyph-name="N" unicode="N" horiz-adv-x="1213" 
d="M129 146v1356h126l716 -1152v1152h113v-1356h-124l-715 1157v-1157h-116z" />
    <glyph glyph-name="O" unicode="O" horiz-adv-x="1309" 
d="M129 823q0 68 10 136t28.5 131t44.5 119.5t59 100.5q31 43 74.5 78.5t93.5 61t104.5 39t108.5 13.5q227 0 373 -176q76 -91 115.5 -216t39.5 -287q0 -152 -39.5 -273.5t-115.5 -217.5q-75 -92 -166.5 -139t-206.5 -47q-107 0 -196.5 47t-165.5 139q-80 96 -120.5 217.5
t-40.5 273.5zM247 823q0 -268 127 -415q61 -69 133.5 -107.5t144.5 -38.5q95 0 172.5 36.5t130.5 109.5q53 72 81 179t28 236q0 119 -29 222.5t-80 180.5q-54 79 -131 121.5t-172 42.5q-83 0 -158 -39.5t-133 -112.5q-60 -73 -87 -177t-27 -238z" />
    <glyph glyph-name="P" unicode="P" 
d="M129 146v1356h356q100 0 168 -24t112 -75q43 -51 65.5 -117.5t22.5 -147.5q0 -185 -90.5 -277t-277.5 -92h-240v-623h-116zM245 881h251q51 0 94.5 15.5t76.5 47.5q68 63 68 194q0 60 -16.5 107.5t-51.5 80.5q-32 30 -77 47t-105 17h-240v-509z" />
    <glyph glyph-name="Q" unicode="Q" horiz-adv-x="1321" 
d="M129 823q0 68 10 136t28.5 131t44.5 119.5t59 100.5q31 43 74.5 78.5t93.5 61t104.5 39t108.5 13.5q227 0 373 -176q73 -91 114 -216t41 -287q0 -289 -109 -452l121 -118l-95 -98l-122 123q-141 -132 -323 -132q-107 0 -196.5 47t-165.5 139q-80 96 -120.5 217.5
t-40.5 273.5zM245 823q0 -274 129 -415q67 -74 135 -110t143 -36q66 0 129.5 24t110.5 81l-134 129l93 97l125 -125q45 61 66.5 147.5t21.5 207.5q0 119 -29 223.5t-80 179.5q-53 78 -130.5 121t-172.5 43q-83 0 -159 -39.5t-132 -112.5q-60 -75 -88 -178.5t-28 -236.5z" />
    <glyph glyph-name="R" unicode="R" horiz-adv-x="1062" 
d="M129 146v1356h356q100 0 168 -24t114 -75t66 -117.5t20 -147.5q0 -62 -11.5 -109t-37 -85.5t-67 -72t-101.5 -67.5q27 -15 50.5 -46.5t44 -74.5t37.5 -95t30 -107q29 -123 65 -205t69 -130h-118q-12 10 -25 36t-26.5 63.5t-27.5 83.5t-28 97q-18 69 -39.5 131t-46 109.5
t-53.5 75t-63 27.5h-260v-623h-116zM245 881h251q51 0 94.5 15.5t76.5 47.5q34 33 51 80.5t17 113.5q0 60 -16 107.5t-50 80.5q-35 33 -80.5 48.5t-103.5 15.5h-240v-509z" />
    <glyph glyph-name="S" unicode="S" horiz-adv-x="995" 
d="M129 1161q0 79 26 143t79 108q110 90 265 90q102 0 182 -35t141 -113l-89 -70q-45 51 -103 78.5t-131 27.5q-50 0 -92 -14.5t-83 -42.5q-79 -52 -79 -155q0 -37 17.5 -72.5t48.5 -68t72 -60t89 -48.5q100 -45 178.5 -92.5t123.5 -95.5t69 -105t24 -124q0 -174 -93 -270
t-275 -96q-76 0 -139 14.5t-104 49.5q-38 34 -67 69.5t-57 79.5l91 77q24 -42 55.5 -77t58.5 -55q36 -25 75 -33.5t87 -8.5q54 0 99.5 12t81.5 41q33 26 52.5 75.5t19.5 112.5q0 54 -21 105t-54 83q-37 36 -105.5 75.5t-160.5 81.5q-63 28 -117 59t-92 69q-34 37 -53.5 84
t-19.5 101z" />
    <glyph glyph-name="T" unicode="T" horiz-adv-x="1310" 
d="M129 1390v112h1053v-112h-468v-1244h-115v1244h-470z" />
    <glyph glyph-name="U" unicode="U" horiz-adv-x="1150" 
d="M129 591v911h116v-911q0 -72 23.5 -135t67.5 -108q42 -46 104.5 -66t136.5 -20q70 0 131.5 22t105.5 64q47 45 69 108t22 135v911h116v-911q0 -100 -32.5 -177.5t-98.5 -142.5q-64 -63 -140.5 -94t-172.5 -31q-195 0 -322 125q-66 63 -96 141t-30 179z" />
    <glyph glyph-name="V" unicode="V" horiz-adv-x="1445" 
d="M129 1502h114l478 -1233l479 1233h116l-533 -1356h-122z" />
    <glyph glyph-name="W" unicode="W" horiz-adv-x="2022" 
d="M129 1502h112l445 -1235l263 771h126l267 -769l440 1233h111l-493 -1356h-123l-265 767l-266 -767h-121z" />
    <glyph glyph-name="X" unicode="X" horiz-adv-x="1124" 
d="M129 1502h114l319 -575l321 575h112l-378 -679l378 -677h-110l-323 605l-319 -605h-113l378 677z" />
    <glyph glyph-name="Y" unicode="Y" horiz-adv-x="1122" 
d="M129 1502h112l320 -575l320 575h113l-377 -674v-682h-112v682z" />
    <glyph glyph-name="Z" unicode="Z" horiz-adv-x="1150" 
d="M129 146v110l768 1152h-768v94h892v-109l-766 -1150h766v-97h-892z" />
    <glyph glyph-name="bracketleft" unicode="[" horiz-adv-x="446" 
d="M131 -266v1890h297v-113h-184v-1665h184v-112h-297z" />
    <glyph glyph-name="backslash" unicode="\" horiz-adv-x="446" 
d="M20 1628h78l355 -1519h-82z" />
    <glyph glyph-name="bracketright" unicode="]" horiz-adv-x="446" 
d="M49 -154h187v1665h-187v113h297v-1890h-297v112z" />
    <glyph glyph-name="asciicircum" unicode="^" horiz-adv-x="754" 
d="M68 848l280 780h94l285 -780h-109l-223 659l-223 -659h-104z" />
    <glyph glyph-name="underscore" unicode="_" horiz-adv-x="893" 
d="M-4 -49h942v-60h-942v60z" />
    <glyph glyph-name="grave" unicode="`" horiz-adv-x="535" 
d="M111 1630h145l100 -246h-84z" />
    <glyph glyph-name="a" unicode="a" horiz-adv-x="833" 
d="M85 398q0 99 61 175q56 74 269 74q60 0 101.5 10t63.5 27q21 17 35.5 43t14.5 54q0 29 -14.5 53t-36.5 47q-23 21 -65 31t-99 10q-29 0 -63.5 -4t-61.5 -17q-24 -10 -46.5 -31.5t-33.5 -49.5l-120 39q28 43 58 76t62 51q46 26 95 39t110 13q96 0 162 -23t98 -67
q30 -44 49.5 -100t19.5 -113v-589h-114v37q-84 -37 -215 -37q-72 0 -137.5 19.5t-106.5 52.5q-42 35 -64 82.5t-22 97.5zM201 398q0 -73 52 -104.5t162 -31.5q38 0 75 4.5t66 15.5q35 14 54.5 42.5t19.5 73.5v198q-38 -32 -91 -46.5t-119 -14.5q-113 0 -162 -32
q-29 -20 -43 -45t-14 -60z" />
    <glyph glyph-name="b" unicode="b" horiz-adv-x="946" 
d="M121 146v1356h117v-580q102 116 251 116q78 0 146.5 -30t118.5 -81q51 -53 77 -138.5t26 -197.5q0 -115 -26.5 -197t-76.5 -136q-103 -112 -265 -112q-149 0 -251 114v-114h-117zM238 591q0 -85 16.5 -150t49.5 -104t80.5 -57t104.5 -18t103.5 18t80.5 57q33 41 52 103.5
t19 150.5q0 84 -17.5 150.5t-53.5 104.5q-32 32 -81 54t-103 22q-60 0 -106 -20.5t-79 -55.5q-35 -38 -50.5 -104.5t-15.5 -150.5z" />
    <glyph glyph-name="c" unicode="c" horiz-adv-x="860" 
d="M85 591q0 112 25 197t78 139q51 51 117.5 81t149.5 30q99 0 180 -46t141 -139l-111 -20q-37 43 -89.5 66t-120.5 23q-61 0 -108.5 -19.5t-79.5 -56.5q-66 -75 -66 -255q0 -89 18.5 -152.5t47.5 -101.5q32 -39 79.5 -57t108.5 -18q71 0 122 26t88 77l111 -37
q-60 -89 -140.5 -135.5t-180.5 -46.5q-156 0 -265 112q-52 54 -78.5 136t-26.5 197z" />
    <glyph glyph-name="d" unicode="d" horiz-adv-x="946" 
d="M86 591q0 112 26 196t80 140q53 53 118 82t147 29q79 0 140 -29t112 -89v582h114v-1356h-114v114q-51 -57 -112.5 -85.5t-139.5 -28.5q-82 0 -146.5 28t-118.5 82q-52 51 -79 135.5t-27 199.5zM202 591q0 -88 19 -152t48 -102q31 -41 79 -58t109 -17q56 0 104 17t81 58
q67 79 67 254q0 84 -17 151.5t-50 103.5t-81 56t-104 20q-60 0 -108.5 -19.5t-79.5 -56.5q-29 -35 -48 -103t-19 -152z" />
    <glyph glyph-name="e" unicode="e" horiz-adv-x="913" 
d="M86 591q0 112 26 197.5t78 138.5q53 53 118 82t149 29q78 0 145 -29t121 -82q48 -49 74 -137t26 -210h-621q1 -82 19 -142t51 -99t79.5 -58t105.5 -19q71 0 122 26.5t86 74.5l107 -43q-119 -174 -315 -174q-82 0 -146.5 28t-118.5 82q-52 51 -79 135.5t-27 199.5z
M206 693h498q-9 118 -70 169q-32 29 -74.5 44.5t-102.5 15.5q-58 0 -103.5 -14t-77.5 -46q-28 -27 -46.5 -68t-23.5 -101z" />
    <glyph glyph-name="f" unicode="f" horiz-adv-x="680" 
d="M85 922v116h162v175q0 72 15 131t46 91q32 35 79.5 51t99.5 16q64 0 104 -22v-107q-22 7 -50 12t-54 5q-65 0 -97.5 -39.5t-32.5 -137.5v-175h155v-116h-155v-776h-110v776h-162z" />
    <glyph glyph-name="g" unicode="g" horiz-adv-x="946" 
d="M86 591q0 112 26 196t80 140q53 53 118 82t147 29q79 0 140 -29t112 -89v118h114v-1003q0 -76 -23 -130.5t-62.5 -91.5t-91.5 -59t-111 -33.5t-121 -13.5q-30 -1 -60 -1t-59 1v103q86 0 161.5 8.5t131.5 32.5t88.5 67t32.5 112v230q-51 -57 -112.5 -85.5t-139.5 -28.5
q-82 0 -146.5 28t-118.5 82q-52 51 -79 135.5t-27 199.5zM202 591q0 -88 19 -152t48 -102q31 -41 79 -58t109 -17q56 0 104 17t81 58q67 79 67 254q0 84 -17 151.5t-50 103.5t-81 56t-104 20q-60 0 -108.5 -19.5t-79.5 -56.5q-29 -35 -48 -103t-19 -152z" />
    <glyph glyph-name="h" unicode="h" horiz-adv-x="946" 
d="M121 146v1356h117v-580q102 116 251 116q78 0 146.5 -30t118.5 -81q51 -53 77 -138.5t26 -197.5v-445h-113v445q0 84 -17.5 150.5t-53.5 104.5q-32 32 -81 54t-103 22q-60 0 -106 -20.5t-79 -55.5q-35 -38 -50.5 -104.5t-15.5 -150.5v-445h-117z" />
    <glyph glyph-name="i" unicode="i" horiz-adv-x="461" 
d="M175 146v892h110v-892h-110zM175 1291q0 23 13.5 39.5t41.5 16.5q26 0 40.5 -16.5t14.5 -39.5q0 -56 -55 -56t-55 56z" />
    <glyph glyph-name="j" unicode="j" horiz-adv-x="461" 
d="M175 -320v1358h110v-1358h-110zM175 1291q0 23 13.5 39.5t41.5 16.5q26 0 40.5 -16.5t14.5 -39.5q0 -56 -55 -56t-55 56z" />
    <glyph glyph-name="k" unicode="k" horiz-adv-x="946" 
d="M121 146v1356h117v-842l361 378h155l-253 -266l358 -626h-129l-304 558l-188 -178v-380h-117z" />
    <glyph glyph-name="l" unicode="l" horiz-adv-x="461" 
d="M175 146v1356h110v-1356h-110z" />
    <glyph glyph-name="m" unicode="m" horiz-adv-x="1546" 
d="M100 146v892h112v-116q107 116 256 116q103 0 179.5 -48t130.5 -125q27 38 59.5 70t70.5 55t83 35.5t98 12.5q82 0 148 -30t116 -81q51 -54 77 -139t26 -197v-445h-112v445q0 89 -16.5 154.5t-48.5 100.5q-36 37 -83 56.5t-107 19.5q-57 0 -103 -20.5t-81 -55.5
q-36 -38 -52 -102t-16 -153v-445h-113v445q0 85 -18.5 152t-51.5 103q-32 36 -79 56t-107 20q-61 0 -106 -19.5t-80 -56.5q-70 -76 -70 -255v-445h-112z" />
    <glyph glyph-name="n" unicode="n" horiz-adv-x="927" 
d="M100 146v892h114v-116q104 116 254 116q79 0 147 -30t118 -81q51 -53 78.5 -138.5t27.5 -197.5v-445h-115v445q0 84 -18.5 151.5t-51.5 103.5q-32 33 -81 54.5t-105 21.5q-60 0 -107 -19.5t-79 -56.5q-31 -35 -49.5 -103t-18.5 -152v-445h-114z" />
    <glyph glyph-name="o" unicode="o" horiz-adv-x="913" 
d="M86 591q0 112 26 196t80 140q53 53 118 82t147 29q79 0 145.5 -28.5t120.5 -82.5q51 -51 75.5 -137.5t24.5 -198.5q0 -227 -100 -333q-106 -112 -266 -112q-82 0 -146.5 28t-118.5 82q-52 51 -79 135.5t-27 199.5zM202 591q0 -88 19 -152t48 -102q31 -41 79 -58t109 -17
q56 0 104 17t81 58q67 79 67 254q0 84 -17 151.5t-50 103.5t-81 56t-104 20q-60 0 -108.5 -19.5t-79.5 -56.5q-29 -35 -48 -103t-19 -152z" />
    <glyph glyph-name="p" unicode="p" horiz-adv-x="946" 
d="M121 -320v1358h117v-116q102 116 251 116q78 0 146.5 -30t118.5 -81q51 -53 77 -138.5t26 -197.5q0 -115 -26.5 -197t-76.5 -136q-103 -112 -265 -112q-149 0 -251 114v-580h-117zM238 591q0 -85 16.5 -150t49.5 -104t80.5 -57t104.5 -18t103.5 18t80.5 57
q33 41 52 103.5t19 150.5q0 84 -17.5 150.5t-53.5 104.5q-32 32 -81 54t-103 22q-60 0 -106 -20.5t-79 -55.5q-35 -38 -50.5 -104.5t-15.5 -150.5z" />
    <glyph glyph-name="q" unicode="q" horiz-adv-x="946" 
d="M86 591q0 112 26 196t80 140q53 53 118 82t147 29q79 0 140 -29t112 -89v118h114v-1358h-114v580q-51 -57 -112.5 -85.5t-139.5 -28.5q-82 0 -146.5 28t-118.5 82q-52 51 -79 135.5t-27 199.5zM202 591q0 -88 19 -152t48 -102q31 -41 79 -58t109 -17q56 0 104 17t81 58
q67 79 67 254q0 84 -17 151.5t-50 103.5t-81 56t-104 20q-60 0 -108.5 -19.5t-79.5 -56.5q-29 -35 -48 -103t-19 -152z" />
    <glyph glyph-name="r" unicode="r" horiz-adv-x="816" 
d="M100 146v892h112v-116q54 61 116 88.5t138 27.5q88 0 151.5 -26t112.5 -80l-65 -86q-40 37 -88 56.5t-111 19.5q-60 0 -105.5 -19.5t-80.5 -56.5q-35 -38 -51.5 -102t-16.5 -153v-445h-112z" />
    <glyph glyph-name="s" unicode="s" horiz-adv-x="754" 
d="M85 783q0 57 17 103.5t47 79.5q32 35 90 53.5t137 18.5q99 0 170 -31.5t114 -97.5l-99 -56q-26 35 -71.5 52t-113.5 17q-102 0 -138 -39q-36 -36 -36 -100q0 -15 16.5 -33t46 -38t71 -41.5t91.5 -45.5q51 -24 95 -51.5t75.5 -57.5t49.5 -60.5t18 -59.5q0 -51 -16 -97.5
t-48 -82.5q-29 -32 -88 -51t-137 -19q-100 0 -170 41.5t-111 129.5l104 33q18 -45 63 -66.5t114 -21.5q90 0 133.5 28.5t43.5 105.5q0 18 -18.5 38t-49 40.5t-71.5 41.5t-86 40q-54 24 -99 52t-77 57.5t-49.5 59.5t-17.5 58z" />
    <glyph glyph-name="t" unicode="t" horiz-adv-x="680" 
d="M85 922v116h162v309h110v-309h234v-116h-234v-486q0 -48 7.5 -83t24.5 -54q17 -20 42 -28.5t56 -8.5q29 0 55 2.5t49 9.5v-105q-39 -23 -104 -23q-53 0 -98.5 14.5t-80.5 49.5q-35 36 -48 92t-13 134v486h-162z" />
    <glyph glyph-name="u" unicode="u" horiz-adv-x="927" 
d="M86 591v447h116v-447q0 -85 20 -150.5t49 -103.5q32 -41 79 -58t107 -17q56 0 103 18t82 57q33 39 51.5 102.5t18.5 151.5v447h114v-892h-114v114q-104 -114 -255 -114q-78 0 -143 28.5t-121 81.5q-107 104 -107 335z" />
    <glyph glyph-name="v" unicode="v" horiz-adv-x="1039" 
d="M85 1038h119l316 -778l315 778h118l-374 -892h-120z" />
    <glyph glyph-name="w" unicode="w" horiz-adv-x="1585" 
d="M86 1038h111l266 -774l265 774h123l268 -776l267 776h109l-313 -892h-128l-263 767l-264 -767h-127z" />
    <glyph glyph-name="x" unicode="x" horiz-adv-x="867" 
d="M83 146l293 445l-291 447h105l245 -363l240 363h108l-300 -447l300 -445h-106l-242 366l-245 -366h-107z" />
    <glyph glyph-name="y" unicode="y" horiz-adv-x="1050" 
d="M86 -227h135q38 0 82 46t91 140l83 168l-382 911h113l325 -778l324 778h110l-455 -1059q-65 -152 -141 -225.5t-150 -73.5h-135v93z" />
    <glyph glyph-name="z" unicode="z" horiz-adv-x="914" 
d="M86 146v118l614 650h-614v106h740v-119l-614 -648h614v-107h-740z" />
    <glyph glyph-name="braceleft" unicode="{" horiz-adv-x="537" 
d="M61 586v129q56 5 98.5 46.5t57.5 106.5q8 35 13.5 103t5.5 164q0 91 2.5 153t5.5 94q5 45 16.5 86.5t28.5 69.5q28 44 71.5 62t118.5 18h29v-117h-6q-47 0 -79 -14t-52 -37q-17 -22 -28 -67t-11 -117q0 -138 -1 -229t-7 -126q-8 -49 -22.5 -86.5t-31.5 -66.5
q-15 -26 -48.5 -54.5t-84.5 -60.5q59 -29 96.5 -64.5t57.5 -80.5q21 -48 31 -124t10 -188q0 -114 2.5 -183.5t7.5 -88.5q6 -31 19 -52t28 -36q16 -14 46 -21.5t67 -7.5h6v-121h-29q-40 0 -70.5 7t-50.5 18t-36.5 22t-28.5 31q-19 28 -28.5 60.5t-14.5 66.5q-6 38 -10 110.5
t-4 172.5q0 99 -6.5 165t-14.5 101q-18 78 -63 115q-22 17 -43.5 26.5t-47.5 14.5z" />
    <glyph glyph-name="bar" unicode="|" horiz-adv-x="143" 
d="M29 -406v2034h86v-2034h-86z" />
    <glyph glyph-name="braceright" unicode="}" horiz-adv-x="537" 
d="M49 -203h6q50 0 83.5 14t51.5 35q33 36 33 187q0 140 3 229.5t10 126.5q15 100 61 160.5t127 97.5q-127 77 -162 160q-18 45 -28.5 121t-10.5 184q0 116 -1.5 184t-6.5 88q-6 29 -17 50.5t-30 35.5q-17 13 -44 22t-69 9h-6v117h29q40 0 71 -3t54 -16q18 -9 34 -23.5
t27 -33.5q17 -28 30.5 -61t16.5 -68q5 -37 9 -107.5t4 -170.5q0 -97 4.5 -164.5t13.5 -102.5q21 -76 66 -114q34 -33 92 -39v-129q-60 -6 -99 -46t-59 -112q-18 -71 -18 -264q0 -90 -4 -152t-7 -96q-5 -42 -16.5 -84t-30.5 -74q-23 -42 -68 -62t-120 -20h-29v121z" />
    <glyph glyph-name="asciitilde" unicode="~" horiz-adv-x="938" 
d="M80 762v149q85 111 213 111q47 0 100 -18q26 -8 66 -24t94 -44q48 -25 86.5 -38t69.5 -13q29 0 55 8.5t51 24.5q25 17 45 32t45 37v-153q-49 -51 -102 -77t-113 -26q-25 0 -46 2t-44 8q-19 5 -50 22.5t-81 43.5q-57 29 -104.5 46t-88.5 17q-24 0 -50.5 -9.5t-57.5 -24.5
q-17 -8 -40 -28.5t-48 -45.5z" />
    <glyph glyph-name="uni00A0" unicode="&#xa0;" horiz-adv-x="400" 
 />
    <glyph glyph-name="currency" unicode="&#xa4;" horiz-adv-x="969" 
d="M86 426l125 111q-29 49 -48.5 101t-19.5 103q0 48 17.5 100t52.5 103l-127 109l68 67l122 -116q62 37 119 54t107 17q51 0 108 -17t117 -54l123 116l68 -67l-119 -109q31 -49 48 -101t17 -102q0 -51 -17 -102t-52 -102l123 -111l-68 -61l-123 112q-121 -71 -225 -71
q-48 0 -107 19.5t-119 51.5l-122 -112zM231 741q0 -49 21.5 -93t58.5 -77t86 -52t105 -19q54 0 103 19t86 52t59 77t22 93q0 50 -21.5 93.5t-58.5 76t-86 51.5t-104 19q-56 0 -105 -19t-86 -51.5t-58.5 -76t-21.5 -93.5z" />
    <glyph glyph-name="brokenbar" unicode="&#xa6;" horiz-adv-x="451" 
d="M201 -389v842h75v-842h-75zM201 772v846h75v-846h-75z" />
    <glyph glyph-name="section" unicode="&#xa7;" horiz-adv-x="1110" 
d="M98 838q0 42 12.5 79t42.5 70t81 61.5t128 53.5q-47 38 -77.5 71.5t-48.5 64t-25.5 58.5t-7.5 56q0 54 24.5 104t70 88.5t110 62t145.5 23.5q177 0 276.5 -73.5t128.5 -210.5l-129 -17q-14 61 -36.5 101.5t-54 64.5t-73 33.5t-92.5 9.5q-56 0 -103 -14.5t-81.5 -38.5
t-54 -56.5t-19.5 -68.5q0 -57 45 -109q14 -16 45 -40t75.5 -53.5t100 -62t117.5 -65.5q32 -17 65.5 -35t63.5 -36t54 -34t39 -28q61 -51 98 -108t37 -123q0 -48 -18 -92t-52 -76q-20 -20 -69 -46.5t-130 -58.5q101 -74 148 -140t47 -132q0 -62 -26.5 -114.5t-77 -91.5
t-122 -61t-161.5 -22q-179 0 -285 78t-141 219l123 16q32 -117 105.5 -171t197.5 -54q59 0 108 15t84 41.5t54.5 62.5t19.5 78q0 29 -12.5 55t-32.5 49q-34 40 -129.5 102.5t-239.5 141.5q-72 40 -128 73t-91 62q-26 21 -49.5 49t-41 59.5t-28 64.5t-10.5 65zM201 860
q0 -37 13 -67t45.5 -62t89 -69.5t143.5 -88.5q69 -40 129 -76.5t114 -68.5l29 -2q91 48 136.5 101.5t45.5 103.5q0 29 -19 64.5t-50 70.5q-26 29 -89.5 73t-156.5 97q-63 35 -121.5 70.5t-108.5 72.5q-55 -31 -93 -57.5t-62 -52.5t-34.5 -52.5t-10.5 -56.5z" />
    <glyph glyph-name="copyright" unicode="&#xa9;" horiz-adv-x="1634" 
d="M6 846q0 103 30 200t87 191q60 100 138.5 170t180.5 121q106 54 210.5 77t209.5 23q207 0 420 -100q102 -48 180.5 -124t136.5 -167q59 -90 85 -190.5t26 -200.5t-26 -197t-85 -190q-60 -96 -137.5 -168.5t-177.5 -120.5q-105 -51 -207 -76.5t-215 -25.5q-223 0 -428 102
q-94 48 -173 122t-138 167q-59 96 -88 193t-29 194zM76 846q0 -91 25.5 -176t82.5 -174q51 -79 123.5 -145t165.5 -115q88 -48 188.5 -70.5t200.5 -22.5t198.5 22.5t192.5 70.5q93 48 162.5 113t120.5 147q56 88 83.5 173.5t27.5 176.5q0 88 -30 181t-81 173
q-50 79 -125 148.5t-168 111.5q-187 88 -381 88q-45 0 -95 -5.5t-101 -16.5t-99.5 -27.5t-89.5 -38.5q-88 -45 -165 -113.5t-128 -146.5q-55 -87 -81.5 -174t-26.5 -180zM434 844q0 103 31.5 183.5t88.5 136t135.5 84t172.5 28.5q134 0 225 -56.5t142 -150.5l-70 -10
q-43 81 -113 118t-180 37q-73 0 -136.5 -24.5t-111 -72t-75 -116.5t-27.5 -159q0 -89 26 -157t71 -114t106.5 -69t132.5 -23q116 0 198 53.5t124 141.5l71 -12q-22 -63 -62 -110t-91 -78t-110 -46.5t-120 -15.5q-95 0 -174 29.5t-135.5 85.5t-87.5 136t-31 181z" />
    <glyph glyph-name="guillemotleft" unicode="&#xab;" horiz-adv-x="999" 
d="M143 528l289 375h74l-238 -375l238 -374h-76zM514 528l287 375h76l-238 -375l238 -374h-78z" />
    <glyph glyph-name="logicalnot" unicode="&#xac;" horiz-adv-x="1296" 
d="M147 885v121h1067v-590h-129v469h-938z" />
    <glyph glyph-name="uni00AD" unicode="&#xad;" horiz-adv-x="737" 
d="M45 526v136h684v-136h-684z" />
    <glyph glyph-name="registered" unicode="&#xae;" horiz-adv-x="1634" 
d="M6 850q0 105 29 201t88 192q117 190 319 289q106 51 210.5 76.5t209.5 25.5t208.5 -25.5t211.5 -76.5q102 -48 180.5 -123t136.5 -166q59 -90 85 -189t26 -204q0 -100 -26 -196t-85 -189q-60 -94 -137.5 -167.5t-177.5 -123.5q-105 -51 -207 -75.5t-215 -24.5
q-112 0 -218.5 24.5t-209.5 75.5q-94 48 -172.5 123t-138.5 168q-57 90 -87 188t-30 197zM76 850q0 -88 26.5 -173t81.5 -175q53 -82 124 -147.5t165 -116.5q87 -48 188 -69.5t201 -21.5t198.5 21.5t192.5 69.5q93 48 161.5 115t121.5 149q111 171 111 348q0 42 -8 88.5
t-22.5 92.5t-35 90.5t-45.5 82.5q-51 79 -125.5 148t-167.5 114q-185 90 -381 90q-45 0 -95.5 -7t-101.5 -19t-99 -28.5t-89 -35.5q-45 -21 -86.5 -50t-79 -63t-70 -72t-57.5 -77q-108 -169 -108 -354zM508 432v813h293q78 0 135.5 -5.5t91.5 -14.5q27 -9 52.5 -27t46 -43
t32.5 -54t12 -59q0 -41 -17 -78.5t-50 -67.5t-83 -49.5t-116 -23.5l-2 -35q59 -31 99.5 -71t73.5 -85.5t65.5 -96t75.5 -103.5h-107q-74 128 -134 216t-114 122q-25 16 -59.5 25.5t-83.5 9.5h-133v-373h-78zM586 866h225q74 0 125.5 12.5t83.5 34.5t46.5 51.5t14.5 63.5
q0 160 -280 160h-215v-322z" />
    <glyph glyph-name="macron" unicode="&#xaf;" horiz-adv-x="1225" 
d="M-23 1542v86h1330v-86h-1330z" />
    <glyph glyph-name="degree" unicode="&#xb0;" horiz-adv-x="889" 
d="M168 1352q0 53 24 101t64.5 84t93 57.5t109.5 21.5q59 0 112 -21.5t93.5 -57.5t64 -84t23.5 -101q0 -59 -23.5 -108.5t-64 -86.5t-93.5 -57.5t-112 -20.5q-56 0 -108.5 20.5t-93 57t-65 86.5t-24.5 109zM219 1352q0 -48 19.5 -87t52.5 -67t76.5 -43.5t91.5 -15.5
q49 0 93 15.5t77 43.5t52 67t19 87q0 41 -19 78.5t-52 66t-77 45.5t-93 17q-48 0 -91.5 -17t-76.5 -45.5t-52.5 -66t-19.5 -78.5z" />
    <glyph glyph-name="plusminus" unicode="&#xb1;" horiz-adv-x="1219" 
d="M106 154v122h1065v-122h-1065zM106 866v119h472v432h120v-432h473v-119h-473v-434h-120v434h-472z" />
    <glyph glyph-name="acute" unicode="&#xb4;" horiz-adv-x="737" 
d="M299 1378l131 244h178l-211 -244h-98z" />
    <glyph glyph-name="paragraph" unicode="&#xb6;" horiz-adv-x="1194" 
d="M18 1206q0 98 32.5 176t97 132t162 83t227.5 29h704v-125h-168v-1825h-121v1825h-344v-1825h-114v1119q-116 9 -205 42t-149 86t-91 124.5t-31 158.5z" />
    <glyph glyph-name="periodcentered" unicode="&#xb7;" horiz-adv-x="692" 
d="M276 496v163h166v-163h-166z" />
    <glyph glyph-name="ordmasculine" unicode="&#xba;" horiz-adv-x="809" 
d="M74 1245q0 88 25.5 158.5t72 119.5t111.5 75t143 26q77 0 140.5 -26.5t109.5 -75t71 -118.5t25 -157t-27 -156t-74 -117t-110 -74t-135 -26q-78 0 -142.5 25.5t-111 73.5t-72.5 116.5t-26 155.5zM168 1247q0 -71 18.5 -125t52 -90.5t81 -55t106.5 -18.5q54 0 100.5 17
t80 53t52.5 92t19 133q0 74 -19 127.5t-52.5 88t-80 51t-100.5 16.5q-57 0 -104.5 -15t-81.5 -49.5t-53 -89.5t-19 -135z" />
    <glyph glyph-name="guillemotright" unicode="&#xbb;" horiz-adv-x="999" 
d="M164 152l237 374l-237 375h78l284 -377l-284 -372h-78zM537 152l235 374l-235 375h73l283 -375l-283 -374h-73z" />
    <glyph glyph-name="ring" unicode="&#x2da;" horiz-adv-x="770" 
d="M199 1430q0 38 16 73t44 62t65.5 43t81.5 16q41 0 78.5 -16t66 -43t45 -62.5t16.5 -75.5q0 -42 -16.5 -78.5t-44.5 -64t-65 -43.5t-78 -16q-47 0 -85.5 16.5t-66 44t-42.5 65t-15 79.5zM274 1430q1 -22 11.5 -43.5t28.5 -38.5t42.5 -27t51.5 -8q26 -2 49 7.5t41 26
t28.5 38t10.5 42.5q0 22 -10.5 42t-28.5 35.5t-41.5 24.5t-48.5 9q-27 0 -51 -8.5t-42.5 -23.5t-29.5 -34.5t-11 -41.5z" />
    <glyph glyph-name="tilde" unicode="&#x2dc;" horiz-adv-x="737" 
d="M29 1432q12 48 28.5 83t41.5 58q26 24 62 35.5t72 11.5q31 0 74.5 -16.5t106.5 -40.5q42 -19 72 -27t61 -8q49 0 77.5 18.5t43.5 75.5h73q-14 -94 -65 -141t-123 -47q-35 0 -78 15t-100 42q-87 41 -133 41q-52 0 -85.5 -23t-45.5 -77h-82z" />
    <glyph glyph-name="uni10D0" unicode="&#x10d0;" horiz-adv-x="1020" 
d="M100 528v68q0 60 30 125.5t75 128.5l96 -49q-15 -28 -26.5 -57t-19 -56t-11.5 -50.5t-4 -41.5v-74q0 -73 14 -129.5t45.5 -95t83.5 -58.5t127 -20q70 0 121 18t84 57t49 102t16 153v113q0 73 -19 132.5t-50 111t-71 96.5t-81 89t-81 89t-71 95t-50 108t-19 128v119h129
v-119q0 -77 33.5 -141t84 -124t109 -120t109 -128.5t84 -150.5t33.5 -185v-119q0 -443 -410 -443q-101 0 -178 34t-128.5 92.5t-77.5 136.5t-26 165z" />
    <glyph glyph-name="uni10D1" unicode="&#x10d1;" horiz-adv-x="1020" 
d="M100 506v219q0 67 20 135t64.5 126t114 100t168.5 57q15 36 23.5 61t13 45.5t5.5 38.5t1 41q-1 25 -22 43t-52.5 35t-67.5 35t-67 43.5t-51.5 60t-20.5 84.5h140q0 -42 20.5 -69.5t52 -47.5t67.5 -36.5t67.5 -35.5t52 -44.5t20.5 -63.5q0 -30 -3 -53.5t-9.5 -45
t-16.5 -43t-24 -48.5q81 -19 141 -64t100.5 -103.5t60.5 -124t20 -124.5l2 -223q0 -62 -26.5 -132.5t-78 -131t-128.5 -100.5t-177 -40q-101 0 -178 37t-128.5 95.5t-77.5 130.5t-26 143zM240 528q0 -60 15.5 -116t48.5 -99t84 -68.5t122 -25.5q74 0 125.5 28t83.5 71.5
t46.5 96t14.5 101.5v203q0 52 -16.5 107.5t-50 100.5t-84.5 74t-119 29q-73 0 -124.5 -25.5t-83.5 -68.5t-47 -101t-15 -122v-185z" />
    <glyph glyph-name="uni10D2" unicode="&#x10d2;" horiz-adv-x="1133" 
d="M90 539v118q0 87 30.5 168.5t93 146t158 105t226.5 45.5l100 201q0 25 -13.5 57.5t-38.5 61t-59 48t-75 19.5q-102 0 -150.5 -38.5t-48.5 -98.5v-129h-125v129q0 57 27.5 104.5t72.5 81.5t103.5 53t120.5 19q78 0 136.5 -21.5t97.5 -61t58 -96.5t19 -128l-98 -213
q51 -16 107.5 -52t103.5 -90.5t77 -127t29 -162.5l-2 -139q-1 -48 -13.5 -99t-38 -99.5t-64.5 -92.5t-92 -76.5t-120.5 -52t-150.5 -19.5q-76 0 -140 20.5t-116.5 54.5t-92.5 79t-67 94t-41 98.5t-14 92.5zM229 555q0 -59 20.5 -119.5t62.5 -109t105.5 -79t149.5 -30.5
q85 0 148 25t103.5 70t60.5 107t20 136v125q0 51 -18 107.5t-54 104t-90.5 78.5t-126.5 31h-67q-74 0 -132 -24.5t-98.5 -70t-62 -110t-21.5 -145.5v-96z" />
    <glyph glyph-name="uni10D3" unicode="&#x10d3;" horiz-adv-x="1540" 
d="M100 977v121q0 50 4 109.5t17 118.5t37 114t64.5 97t98.5 67.5t140 25.5q57 0 99.5 -12t75.5 -39.5t59.5 -74t52.5 -115.5q24 71 54.5 117.5t69 74t85.5 38.5t104 11q74 0 131 -20t99 -54.5t70.5 -80.5t46 -99t25 -110t7.5 -113v-172q0 -84 -21.5 -168.5t-67.5 -151.5
t-118 -109t-172 -42q-95 0 -166.5 36.5t-119 101t-71.5 153t-24 192.5v156q0 74 -11.5 139.5t-37.5 114.5t-67.5 77.5t-102.5 28.5q-53 0 -90 -20.5t-62 -54.5t-38.5 -77.5t-20.5 -89t-8.5 -90t-1.5 -79.5v-115q0 -162 46.5 -299t136.5 -237t222.5 -156t304.5 -56h180v-135
h-180q-146 0 -265.5 34.5t-214 95.5t-164 144.5t-115.5 180.5t-68.5 204.5t-22.5 217.5zM819 987q0 -185 58 -271.5t184 -86.5q56 0 95 16t65.5 43.5t41.5 63.5t23 76t10 81t2 78v166q0 42 -2 84.5t-9 82.5t-22 74t-41.5 60t-66 40.5t-96.5 14.5q-77 0 -124.5 -23t-73.5 -68
t-35 -111.5t-9 -153.5v-166z" />
    <glyph glyph-name="uni10D4" unicode="&#x10d4;" horiz-adv-x="1030" 
d="M90 465q0 73 14.5 128.5t40 100t60 79t74.5 65.5l86 -86q-38 -35 -64 -62.5t-42 -58.5t-23 -70.5t-7 -97.5q0 -117 66 -180.5t205 -63.5q61 0 111 16t85.5 46t54.5 72.5t19 95.5v849q0 47 -16.5 86t-46.5 66.5t-73 43t-97 15.5q-55 0 -100.5 -15t-78.5 -42.5t-51 -67
t-18 -88.5q0 -34 9 -68.5t38 -80.5l-103 -78q-75 100 -75 227q0 75 26 136.5t74 105.5t115.5 68t150.5 24q81 0 151.5 -21.5t122.5 -63.5t81.5 -104t29.5 -143v-854q0 -91 -33.5 -156t-90 -107t-130.5 -61.5t-155 -19.5q-89 0 -164.5 27.5t-130 76.5t-85 116t-30.5 145z" />
    <glyph glyph-name="uni10D5" unicode="&#x10d5;" horiz-adv-x="1010" 
d="M90 446v78q0 27 8 59t25 64t43 62t63 53l109 -66q-31 -24 -52 -43.5t-33.5 -40t-18 -43.5t-5.5 -53v-59q0 -48 16.5 -91.5t50.5 -76t84.5 -51.5t119.5 -19t120 16.5t84 47t49.5 74t16.5 96.5v163q0 35 -8 77.5t-26.5 79.5t-48.5 62t-75 25h-131v121h131q33 0 57 14
t40.5 36.5t26.5 51.5t15.5 59t7 58t1.5 49v45q0 39 -14.5 77.5t-44.5 69t-77 49.5t-112 19q-57 0 -102 -18.5t-76 -47t-47.5 -62t-16.5 -62.5v-31q0 -30 3.5 -52t10.5 -40.5t18 -36t26 -37.5l-115 -53q-40 51 -62 102.5t-22 108.5v49q0 53 28 106.5t79 97t121.5 70.5
t154.5 27q97 0 170 -28t121 -74t72 -105t24 -120v-66q0 -27 -1.5 -65.5t-17.5 -81.5t-53 -87t-108 -81q71 -35 109.5 -74t56.5 -79t21 -79t3 -74v-163q0 -69 -26 -133t-77.5 -113t-128 -78t-177.5 -29q-102 0 -178.5 31t-128 80.5t-77.5 111t-26 123.5z" />
    <glyph glyph-name="uni10D6" unicode="&#x10d6;" horiz-adv-x="1110" 
d="M41 1315v47q0 64 25 113.5t69.5 84t106 52.5t135.5 18q92 0 157 -19.5t105.5 -54.5t59 -84.5t18.5 -109.5v-51q0 -27 -10 -57.5t-27.5 -60t-42.5 -56.5t-55 -47q106 0 186.5 -34t134.5 -90.5t81.5 -129t27.5 -150.5v-164q0 -106 -32.5 -185t-90.5 -131.5t-136.5 -79
t-170.5 -26.5q-90 0 -168 26.5t-136 79t-91 131.5t-33 185v158q0 67 14 118.5t39 91.5t58 69.5t71 52.5q-151 15 -223 92t-72 211zM170 1280q0 -37 13 -68t39.5 -53.5t66.5 -35.5t94 -13q34 0 70 10t66 31t49.5 53t19.5 76v78q0 38 -19.5 66.5t-50 47t-67.5 28t-72 9.5
q-96 0 -152.5 -38t-56.5 -115v-76zM291 545q0 -83 23 -144t62.5 -101.5t92.5 -60.5t113 -20q62 0 115 21.5t91.5 63.5t60 105t21.5 146v92q0 84 -21.5 145t-60 100.5t-91.5 59t-115 19.5q-60 0 -113 -16.5t-92.5 -53.5t-62.5 -95t-23 -142v-119z" />
    <glyph glyph-name="uni10D7" unicode="&#x10d7;" horiz-adv-x="1640" 
d="M121 680v410q0 65 6.5 130t23 124.5t45.5 111t73 89.5t106 60t145 23q42 1 89.5 -5.5t93 -29.5t85.5 -67t66 -117q27 76 57 120t65.5 66.5t78.5 28.5t96 6q82 0 141 -24t100 -65.5t66.5 -97.5t39 -119t18 -130.5t4.5 -132.5v-311q0 -74 -9.5 -150.5t-30 -149t-53 -136
t-78 -111.5t-105 -75.5t-134.5 -27.5v119q67 0 118 44.5t84.5 117t50.5 165.5t17 191v289q0 57 -2 115t-9.5 112t-22 100.5t-40 81t-63.5 54.5t-92 20q-86 0 -132.5 -24t-68.5 -62.5t-26 -87t-4 -96.5v-586q0 -101 -20.5 -199.5t-67.5 -177.5t-123.5 -127.5t-188.5 -48.5
q-120 0 -197.5 50t-122 132t-62 186t-17.5 212zM260 696q0 -119 11.5 -208t41 -149t79.5 -90t128 -30q72 0 121.5 29.5t80 85t44.5 134.5t14 179v592q0 48 -14 96.5t-44.5 87t-80 62.5t-121.5 24q-83 0 -134 -41t-79 -106.5t-37.5 -147.5t-9.5 -163v-355z" />
    <glyph glyph-name="uni10D8" unicode="&#x10d8;" horiz-adv-x="1061" 
d="M90 698v361q0 66 7 134t24 131.5t46.5 119t75 97t109 65.5t148.5 24q86 0 150.5 -21t110 -58t74.5 -89t46 -114.5t23.5 -133t6.5 -145.5l-2 -364q-1 -99 -16 -198t-49.5 -183t-92.5 -144t-145 -80l-12 119q36 0 68 32t56 93.5t38 150.5t14 203v371q0 103 -12 185
t-41.5 138.5t-80 86.5t-128.5 30q-86 0 -140.5 -30.5t-85 -88t-42 -140.5t-11.5 -187v-365q0 -112 10 -201t28 -150.5t44.5 -94.5t59.5 -33l-2 -119q-59 11 -102.5 42.5t-74.5 77t-51 103t-31 120t-15.5 128t-4.5 127.5z" />
    <glyph glyph-name="uni10D9" unicode="&#x10d9;" horiz-adv-x="999" 
d="M80 440v88q0 34 11.5 68t31 64.5t44.5 56t52 43.5l74 -84q-40 -31 -57 -77t-17 -89v-47q0 -44 16.5 -87.5t50 -78.5t84.5 -56.5t119 -21.5q75 0 127 21.5t84 60t46 90t14 111.5v100q0 61 -16.5 118.5t-46 102t-70.5 71t-90 26.5h-195v120h186q39 0 74 12t61.5 36t42 59.5
t15.5 83.5v72q0 38 -16.5 75t-43 66t-60.5 47t-69 18v121q51 0 108.5 -24.5t106.5 -68t81 -103.5t32 -131v-43q0 -59 -14.5 -103.5t-41 -78t-64.5 -57t-85 -40.5q71 -22 118 -58.5t75 -85t39.5 -108t11.5 -127.5v-100q0 -83 -27.5 -156t-80 -128t-129 -86.5t-173.5 -31.5
q-93 0 -169 31t-129 80t-82 109.5t-29 119.5z" />
    <glyph glyph-name="uni10DA" unicode="&#x10da;" horiz-adv-x="2042" 
d="M100 1163q0 97 21 181t65 145t112 96t163 35q50 0 91.5 -8.5t77.5 -32t68.5 -65.5t63.5 -109q21 67 46 110.5t56.5 69t70 35.5t85.5 10q45 0 83 -10t71 -34.5t60.5 -66t51.5 -104.5q28 63 62.5 103t73 62.5t79 31t80.5 8.5q75 0 141 -27.5t115 -81t77 -131.5t28 -178
v-145q0 -42 -11 -93t-30.5 -105t-47.5 -108t-62 -102t-74 -87.5t-83 -63.5l-88 80q58 43 105 105t80 129.5t51 134.5t18 120v125q0 75 -17 132.5t-46.5 96.5t-69 58.5t-84.5 19.5q-71 0 -116 -21.5t-70 -59.5t-34 -89t-9 -110v-310h-129v310q0 57 -8 109.5t-30 92.5
t-62.5 64t-104.5 24q-59 0 -98 -24.5t-63 -64.5t-34 -91t-10 -104v-316h-131v316q0 53 -5 102.5t-26.5 87.5t-66.5 61t-125 23q-59 0 -100.5 -26.5t-68.5 -73t-39.5 -108.5t-12.5 -134l2 -137q-1 -114 37.5 -215t109.5 -186t170 -152.5t219 -114.5t256.5 -72t282.5 -25h143
v-134h-139q-197 0 -363 35.5t-301 98t-237.5 148t-172.5 185.5t-106.5 210t-38.5 222z" />
    <glyph glyph-name="uni10DB" unicode="&#x10db;" horiz-adv-x="1040" 
d="M90 528v211q0 75 27 151.5t79.5 138.5t130.5 101t179 39q34 0 71.5 -6.5t74 -25.5t70 -52.5t58.5 -87.5v334q0 42 -23.5 75t-61 56t-84.5 35t-95 12q-60 0 -105 -11.5t-75 -30.5t-45 -44t-15 -53v-115h-141v115q0 52 32.5 99t86 83t122.5 57t142 21q77 0 148 -21.5
t125.5 -61t87 -94.5t32.5 -122l-2 -827q0 -93 -29.5 -168t-82.5 -127.5t-127 -80.5t-164 -28q-101 0 -179 32.5t-130.5 90t-79.5 135.5t-27 170zM229 528q0 -71 19.5 -128t56 -98t88.5 -63t117 -22q127 0 193.5 80.5t66.5 230.5v215q0 83 -20.5 141.5t-56.5 95.5t-85 54
t-106 17q-67 0 -118 -28t-85.5 -72.5t-52 -100.5t-17.5 -111v-211z" />
    <glyph glyph-name="uni10DC" unicode="&#x10dc;" horiz-adv-x="1040" 
d="M121 512v831q0 69 19 120t51.5 84t76.5 49t94 16q42 0 83 -7.5t81.5 -17t79 -17t74.5 -7.5q30 0 56.5 4.5t53 13t56 21t65.5 28.5v-104q-66 -40 -123 -57t-120 -17q-37 0 -71.5 6t-68 13.5t-67.5 13.5t-70 6q-39 1 -66.5 -10.5t-45 -32.5t-25.5 -49.5t-8 -61.5v-333
q31 48 67 80t73.5 51t74 26.5t69.5 7.5q99 0 175 -34.5t128.5 -91.5t79.5 -131.5t27 -153.5v-248q0 -94 -27 -169.5t-78.5 -129t-127.5 -82.5t-175 -29q-90 0 -165 28.5t-130 82t-85.5 130t-30.5 171.5zM260 512q0 -60 16.5 -113.5t49.5 -93t84 -63t120 -23.5
q137 0 204 78.5t67 226.5v228q0 64 -17 119t-50.5 95t-84 62.5t-117.5 22.5q-24 0 -53.5 -1.5t-59.5 -10.5t-58.5 -27.5t-51 -51.5t-36 -84.5t-13.5 -125.5v-238z" />
    <glyph glyph-name="uni10DD" unicode="&#x10dd;" horiz-adv-x="1661" 
d="M129 758v266q0 75 5 149t20 141t41.5 125t70 100.5t106 66.5t148.5 24q62 0 110.5 -15t86 -43.5t66 -69.5t51.5 -93q20 52 48 93t67 69.5t90.5 43.5t119.5 15q82 0 143.5 -23.5t104.5 -65t71 -98t44 -122t22 -137.5t6 -144l-2 -282q0 -71 -8.5 -147.5t-28 -149.5
t-50.5 -138.5t-76 -115t-105.5 -78.5t-138.5 -29v119q67 0 117 47.5t83 125t49.5 176t16.5 200.5v266q0 102 -6 189t-31 150.5t-74.5 99.5t-136.5 36q-250 0 -250 -297v-616h-139v616q0 156 -62 226.5t-190 70.5q-81 0 -129.5 -36t-75 -100.5t-35 -153.5t-8.5 -195v-262
q0 -65 6.5 -130.5t20 -126t35 -112.5t51.5 -91t69.5 -61t88.5 -22v-119q-82 0 -144.5 28t-108 76t-76.5 112.5t-49.5 138t-26 151t-7.5 152.5z" />
    <glyph glyph-name="uni10DE" unicode="&#x10de;" horiz-adv-x="999" 
d="M80 467v86q0 33 7 67.5t18.5 66t25.5 57.5t29 42l108 -75q-18 -25 -27.5 -45.5t-14.5 -40.5t-6 -42.5t-1 -50.5v-32q0 -56 21 -106.5t57.5 -89.5t85.5 -62t106 -23q72 0 123.5 22t84.5 65t48 106.5t15 146.5v115q0 45 -16 89t-44 79t-66 56.5t-81 21.5h-152v120h152
q43 0 73 14.5t49 39t27.5 58t8.5 71.5v34q0 40 -38.5 63t-96.5 39.5t-125.5 33t-125.5 44.5t-96.5 73.5t-38.5 119.5h140q0 -38 22.5 -63.5t59 -43.5t83 -30.5t95.5 -25.5t95.5 -28t83 -37.5t59 -55t22.5 -80.5v-45q0 -27 -8 -58t-28 -63t-54 -63.5t-86 -59.5
q63 -32 106 -71.5t69.5 -81t38 -80.5t11.5 -70v-129q0 -102 -29.5 -184.5t-83.5 -140.5t-129.5 -89t-167.5 -31q-87 0 -161.5 31t-129.5 82.5t-86.5 117.5t-31.5 136z" />
    <glyph glyph-name="uni10DF" unicode="&#x10df;" horiz-adv-x="1038" 
d="M100 457v45q0 69 27.5 116t75.5 89l104 -68q-15 -15 -27.5 -35t-21.5 -39t-13.5 -35t-4.5 -24v-53q0 -53 21 -96.5t58.5 -74t88.5 -47t110 -16.5t107.5 22t83 58t53 83t18.5 97v1002l-473 -49q17 -13 42.5 -27t54 -32t56.5 -40t50.5 -52t36.5 -68.5t14 -88.5
q0 -26 -10 -57t-32 -62.5t-57.5 -61.5t-87 -52.5t-119.5 -36.5t-155 -14v121q66 0 123.5 5t100.5 22.5t68.5 50.5t27.5 89q1 61 -29 104t-77 73.5t-104 50.5t-110 35v120l818 91v-1137q0 -91 -30 -159.5t-83 -114t-126.5 -68.5t-160.5 -23q-95 0 -172.5 23t-132 68
t-84 111.5t-29.5 154.5z" />
    <glyph glyph-name="uni10E0" unicode="&#x10e0;" horiz-adv-x="1620" 
d="M100 586v145q0 110 18.5 219.5t63.5 209.5t121.5 185.5t193.5 149t278.5 99.5t375.5 36v-121q-174 0 -314 -28t-247.5 -79t-182.5 -123.5t-118 -160.5l78 23l125 28q45 0 91 -4t88.5 -26.5t78 -69.5t59.5 -133q29 86 68 133t82 69.5t87 26.5t84 4q74 0 144 -23t125 -74.5
t88 -135.5t33 -205v-151q0 -43 -14 -95.5t-40 -106t-62.5 -104t-82 -89.5t-99 -63t-112.5 -24v121q56 0 105.5 36t86 90t57.5 117t21 116v153q0 100 -26 164.5t-64 101t-81.5 50.5t-78.5 14q-40 0 -84 -15t-81 -50.5t-61.5 -94t-24.5 -145.5v-224h-140v224q0 87 -24 145.5
t-60.5 94t-80 50.5t-82.5 15q-47 0 -92 -14t-80.5 -50.5t-57.5 -101t-22 -164.5v-158q0 -34 8.5 -73.5t25 -79t40 -76t54 -64.5t67 -44.5t77.5 -16.5v-119q-68 0 -125 24t-102.5 64t-80.5 91t-58 105t-34.5 106.5t-11.5 95.5z" />
    <glyph glyph-name="uni10E1" unicode="&#x10e1;" horiz-adv-x="1040" 
d="M121 565v1065h139v-1065q0 -95 20 -160.5t56 -107t85.5 -60t108.5 -18.5q67 0 118 25.5t85 71t51 109.5t17 142v58q0 52 -18 99t-45 89.5t-58 81.5t-58 76.5t-45 74t-18 74.5q0 42 10 81.5t41 84.5l140 -39q-15 -20 -26 -34.5t-18.5 -28.5t-11.5 -29t-4 -35
q0 -37 18.5 -72t46.5 -69.5t60 -71t60 -77t46.5 -86t18.5 -99.5v-92q0 -98 -30.5 -181t-85 -143.5t-130 -94.5t-164.5 -34q-90 0 -165 28t-129 85.5t-84.5 145t-30.5 206.5z" />
    <glyph glyph-name="uni10E2" unicode="&#x10e2;" horiz-adv-x="1260" 
d="M80 635v295q0 120 43 222t114 178t162 122t187 55l-64 123h201l-53 -123q97 -8 188.5 -53t163 -121t115 -178.5t43.5 -224.5v-295q0 -77 -22 -146.5t-60.5 -129t-91.5 -107.5t-114 -82t-127.5 -52t-133.5 -18q-102 0 -200.5 40t-176.5 111t-126 169t-48 215zM219 635
q0 -77 29 -151.5t83 -133.5t130 -95t170 -36q90 0 165 33.5t129 90.5t84.5 132.5t30.5 159.5v295q0 111 -26 194.5t-74.5 140.5t-117 87.5t-152.5 36.5l32 -654h-149l33 654q-78 -8 -145.5 -39.5t-116.5 -88t-77 -139t-28 -192.5v-295z" />
    <glyph glyph-name="uni10E3" unicode="&#x10e3;" horiz-adv-x="1116" 
d="M20 1491v131q12 -12 30 -25.5t37.5 -25.5t38.5 -19.5t34 -7.5q16 0 32.5 12.5t34.5 27.5t38 27.5t44 12.5q73 0 118.5 -27.5t70.5 -72.5q43 45 95 72.5t107 27.5q52 0 105 -15.5t96 -43t69.5 -66.5t26.5 -86v-885q0 -213 -102 -320.5t-285 -107.5q-101 0 -180.5 29.5
t-135 83t-85 127t-29.5 162.5v94q0 34 13.5 71t34.5 71.5t45.5 64t45.5 47.5l78 -74q-42 -37 -60 -84.5t-18 -95.5v-94q0 -62 19.5 -114t56.5 -89.5t91 -58.5t124 -21q75 0 123.5 24t76 66.5t38 100t10.5 125.5v878q0 19 -12 37.5t-34 33t-53 23.5t-69 9q-34 0 -60 -9
t-44 -23.5t-27.5 -33t-9.5 -37.5v-369h-109v369q0 54 -32 79.5t-89 25.5q-29 0 -49 -16.5t-37 -37t-35 -37t-42 -16.5q-38 0 -74 24.5t-62 55.5z" />
    <glyph glyph-name="uni10E4" unicode="&#x10e4;" horiz-adv-x="1571" 
d="M90 1090v92q0 112 27.5 196t78.5 140t122.5 84t160.5 28q45 0 91 -9.5t88.5 -33.5t79 -66t63.5 -106q26 67 60 109.5t72.5 65.5t78.5 31.5t78 8.5q99 0 170.5 -27t118 -78.5t69 -125t22.5 -166.5v-49q0 -46 -8 -96.5t-36 -96.5t-81.5 -84.5t-144.5 -60.5
q84 -18 133 -52.5t74 -77.5t32 -91t7 -93v-63q0 -93 -41 -162.5t-114.5 -115t-174 -68.5t-219.5 -23q-75 0 -146.5 4.5t-135.5 18t-117.5 39t-92 66.5t-60 101t-21.5 143l137 -27q0 -51 19 -88t52 -62t76.5 -40t92 -23t99 -10.5t97.5 -2.5q80 0 154 12.5t131 42t91 77
t34 118.5v53q0 39 -8 85.5t-29 86t-57 66t-91 26.5h-112v119h112q54 0 93 23.5t64.5 62t37.5 86.5t12 97v51q0 68 -8 121t-33 89t-72 55t-126 19q-61 0 -103 -23.5t-68 -65.5t-37.5 -99.5t-11.5 -124.5v-106q0 -92 -23.5 -170t-72 -135.5t-122 -90t-173.5 -32.5
q-94 0 -166.5 30t-122 86t-75 135t-25.5 177zM229 1090q0 -92 15 -151t46 -93t78 -47t111 -13q73 0 122.5 18.5t78.5 56.5t41.5 95t12.5 134v92q0 94 -16.5 156.5t-49 100.5t-80 54t-109.5 16t-109 -13.5t-78.5 -50t-47 -100t-15.5 -163.5v-92z" />
    <glyph glyph-name="uni10E5" unicode="&#x10e5;" horiz-adv-x="1030" 
d="M90 453v39q0 17 9 42t24.5 51t38 48.5t49.5 34.5l74 -80q-17 -16 -27 -31t-15 -30t-7.5 -30t-4.5 -30l-2 -25q0 -52 15.5 -93.5t48.5 -70t84 -44t123 -15.5q60 0 109.5 13.5t85 40.5t55.5 66.5t20 92.5v459q0 26 -12.5 60.5t-34 70t-51 69.5t-64 61t-72 43.5t-75.5 16.5
q-59 0 -94.5 -15.5t-54.5 -38.5t-25 -51t-6 -52q0 -30 2.5 -46.5t9 -28.5t19.5 -24.5t34 -33.5l-55 -99q-39 23 -65.5 44t-42.5 46.5t-23 59.5t-8 82q-1 59 19.5 109t60.5 87t97.5 57.5t131.5 20.5q55 0 101 -17.5t85 -47.5t72 -69t61 -81v406h-198v110h327v-1188
q0 -83 -31 -146.5t-86 -107t-130 -66t-162 -22.5t-162 25t-130 71t-86.5 111t-31.5 146z" />
    <glyph glyph-name="uni10E6" unicode="&#x10e6;" horiz-adv-x="1540" 
d="M100 946v144q0 124 19 224t61.5 170t111 108t167.5 38q56 0 98.5 -9t76 -35.5t61 -75.5t53.5 -128q27 79 56 127.5t63.5 75.5t76.5 36t96 9q102 0 171 -27t111 -85t60.5 -148t18.5 -217v-201q0 -85 -18.5 -151.5t-49 -117.5t-69 -88.5t-78.5 -64.5l-88 84q53 31 85 76.5
t49 95t22.5 98t5.5 85.5v180q0 108 -10.5 178t-35.5 110.5t-67 56t-105 15.5q-70 0 -113.5 -16t-68 -55.5t-33 -106t-8.5 -166.5v-286h-139v286q0 103 -11 169.5t-36.5 105.5t-67 54t-102.5 15q-59 0 -101 -23t-69 -73t-40 -129.5t-13 -193.5v-144q0 -147 47.5 -274.5
t136 -221.5t214.5 -148t282 -54h161v-148h-161q-131 0 -243 32.5t-203 90.5t-161 138t-117 174t-71.5 198.5t-24.5 212.5z" />
    <glyph glyph-name="uni10E7" unicode="&#x10e7;" horiz-adv-x="1010" 
d="M90 414q0 156 107 233l84 -74q-14 -14 -24 -35.5t-16 -44t-9 -44t-3 -35.5q0 -43 24 -79t63 -61.5t87.5 -40t96.5 -14.5q81 0 133 19.5t82.5 57t42.5 91.5t12 123v414q-29 -42 -56.5 -69t-58.5 -42.5t-67 -22t-82 -6.5q-89 0 -160.5 31.5t-121.5 82t-76.5 114.5
t-26.5 129v149q0 51 16 103t44.5 100t68 91t86.5 77l86 -90q-24 -12 -54 -45.5t-56 -77.5t-44 -93t-18 -91v-82q0 -45 21 -94t56.5 -90t81.5 -68t97 -27q55 0 95.5 18t69.5 45t48 59.5t30 62t15 52t4 29.5l2 461h139v-1138q0 -191 -98 -291.5t-311 -100.5q-78 0 -152 19.5
t-131.5 58.5t-92 98t-34.5 138z" />
    <glyph glyph-name="uni10E8" unicode="&#x10e8;" horiz-adv-x="1145" 
d="M49 1241v162q0 47 17 88t46.5 71.5t69.5 48t86 17.5q48 0 84 -8.5t64.5 -27t51.5 -47t44 -68.5q44 76 96.5 113.5t130.5 37.5q79 0 133.5 -20.5t88 -63t48.5 -107.5t15 -153v-756q0 -96 -35.5 -175t-95 -135t-136.5 -87t-161 -31q-88 0 -166 38.5t-136.5 101.5t-93 142.5
t-34.5 160.5v137q0 89 30.5 169t87 140t135.5 95.5t177 35.5q34 0 77.5 -6.5t85.5 -24.5t78.5 -51t57.5 -86v326q0 68 -4 114.5t-20.5 75t-51.5 40.5t-96 12q-79 0 -115.5 -44.5t-36.5 -119.5v-53h-114v53q0 43 -15 74t-40 51t-56.5 29.5t-64.5 9.5q-35 0 -58 -11.5
t-36.5 -29t-19 -38t-5.5 -38.5v-162h-113zM305 549q0 -64 21 -123.5t59 -105.5t92 -73.5t119 -27.5q59 0 111.5 24t92 65.5t62.5 98t23 121.5v160q0 83 -17.5 141.5t-53.5 96t-90 54.5t-126 17q-62 1 -115.5 -26t-93 -73.5t-62 -108t-22.5 -130.5v-110z" />
    <glyph glyph-name="uni10E9" unicode="&#x10e9;" horiz-adv-x="1040" 
d="M121 100v1268q0 59 26 107.5t69.5 83t101 53t120.5 18.5q51 0 112 -11t113.5 -39.5t87.5 -76.5t35 -121q0 -40 -11.5 -78t-43.5 -81l-106 20q10 15 16.5 29.5t10.5 30.5t5.5 35t1.5 44q0 42 -23.5 67.5t-57.5 38.5t-73.5 17t-70.5 4q-38 0 -71 -11.5t-58.5 -32.5t-40 -50
t-14.5 -63v-424q26 43 58.5 74t69 50.5t75 28.5t77.5 9q120 0 199 -37.5t126 -98t66 -138t19 -157.5v-127q0 -78 -19.5 -144.5t-49.5 -122.5t-65.5 -102t-66.5 -83h-133q34 48 69 98t63 105.5t45.5 118.5t17.5 137v120q0 27 -3.5 60.5t-14 68t-29 67.5t-48.5 59t-73.5 41.5
t-102.5 15.5q-68 0 -120.5 -28t-88 -69t-53.5 -89t-18 -87v-598h-129z" />
    <glyph glyph-name="uni10EA" unicode="&#x10ea;" horiz-adv-x="1159" 
d="M100 635v383q0 50 5.5 120.5t22.5 151.5t48.5 168.5t83.5 171.5l92 -82q-31 -56 -52 -125.5t-34.5 -141.5t-19.5 -140.5t-6 -122.5v-383q0 -73 25 -147t70.5 -134t110.5 -97.5t146 -37.5q79 0 140 28t103 74.5t63.5 107.5t21.5 126v74q0 57 -11 105t-34 83t-59 54.5
t-87 19.5h-147v119h147q51 0 87.5 20.5t59.5 49.5t33.5 60.5t10.5 53.5q0 41 -22 70.5t-55.5 54.5t-72 51t-72 60.5t-55.5 82t-22 117.5h116q0 -50 24 -86t60 -65.5t78 -56t78 -58t60 -71t24 -95.5q0 -26 -4 -59.5t-26.5 -68t-71 -66.5t-138.5 -54q90 -22 138.5 -60.5
t71 -83.5t26.5 -91t4 -82v-78q0 -99 -36 -182.5t-99 -144t-148.5 -94.5t-185.5 -34q-102 0 -192 38.5t-156.5 109t-105 169t-38.5 218.5z" />
    <glyph glyph-name="uni10EB" unicode="&#x10eb;" horiz-adv-x="1040" 
d="M100 532v218q0 92 24.5 169t75 132.5t128 86.5t182.5 31q27 0 59 -5t66.5 -20.5t71 -43.5t73.5 -74v604h140v-1114q0 -90 -29 -166.5t-82.5 -132t-129 -86.5t-169.5 -31q-105 0 -182.5 33t-128 91t-75 137t-24.5 171zM240 516q0 -83 18.5 -139.5t53 -91.5t84.5 -50.5
t114 -15.5t114.5 28t85 72t52.5 98t18 105v217q0 65 -18.5 122t-53.5 99t-85 66.5t-113 24.5q-130 0 -200 -77.5t-70 -234.5v-223z" />
    <glyph glyph-name="uni10EC" unicode="&#x10ec;" horiz-adv-x="1147" 
d="M121 537v743q0 88 14 154t46.5 109.5t86 65t131.5 21.5q40 0 73.5 -8t62 -25.5t53 -44.5t47.5 -65q21 39 43 66t50 44.5t63.5 25t82.5 7.5q46 0 87 -16.5t71.5 -46t48 -69.5t17.5 -87v-131h-113v131q0 18 -6.5 37.5t-21.5 35.5t-39 26t-58 10q-33 0 -63.5 -11t-54.5 -33
t-38 -54.5t-14 -75.5v-54h-117v54q0 38 -8.5 70t-26 55t-45.5 36t-67 13q-62 0 -97 -13t-52.5 -42t-22 -76t-4.5 -115v-301q32 40 69.5 68t77 45.5t79 25.5t75.5 8q97 0 176.5 -38t136 -101t87 -145.5t30.5 -171.5v-132q0 -86 -30 -164t-86 -137.5t-135.5 -95t-178.5 -35.5
q-92 0 -171 33t-136.5 91.5t-90 138.5t-32.5 174zM260 553q0 -65 19.5 -125.5t56.5 -107t91 -74t124 -27.5t123.5 27t89.5 72t54 103.5t18 121.5v110q0 158 -74 250t-211 94q-73 0 -127.5 -15t-91 -49.5t-54.5 -91t-18 -139.5v-149z" />
    <glyph glyph-name="uni10ED" unicode="&#x10ed;" horiz-adv-x="1020" 
d="M100 506q0 63 26 121t71 104l88 -80q-17 -24 -26 -42t-13.5 -34.5t-5 -34t-0.5 -40.5q0 -56 17 -107t51 -89.5t84.5 -61.5t117.5 -23q70 0 121 19.5t84 54.5t49 83.5t16 106.5v58q0 39 -16 72t-40 64.5t-51.5 62.5t-51.5 67t-40 78.5t-16 95.5q-25 -22 -53 -43t-54 -37.5
t-47.5 -26.5t-33.5 -10q-48 0 -90.5 10t-75 34.5t-51.5 66.5t-19 106q0 57 19 97t51.5 65.5t75 37t90.5 11.5q29 0 54 -11.5t47 -30t42 -41.5t39 -46q1 39 2 69t2 55t1.5 47.5t0.5 47.5v138h-176v110h291v-254q0 -43 -7.5 -101t-23.5 -112q89 43 155 82.5t116 89.5v-106
q-44 -31 -112 -68t-173 -78q69 -18 142 -45t143 -69v-113q-28 19 -59 42t-65 44t-71.5 38.5t-77.5 25.5q0 -37 20 -73.5t50.5 -74t66 -76.5t66 -80t50.5 -85t20 -91v-43q0 -89 -27.5 -160t-80 -120.5t-129 -76t-173.5 -26.5q-95 0 -171 31t-129 85.5t-81.5 129t-28.5 160.5z
M252 1081q0 -29 5 -49.5t18.5 -34t38 -20t63.5 -6.5q28 0 58.5 8t56 22.5t42.5 33.5t17 40v23q0 15 -19.5 32t-47.5 31.5t-57.5 23.5t-49.5 9q-40 0 -64.5 -10t-38 -25.5t-18 -36t-4.5 -41.5z" />
    <glyph glyph-name="uni10EE" unicode="&#x10ee;" horiz-adv-x="1040" 
d="M121 483v1147h139v-608q37 45 74 74t71.5 45t66 22t58.5 6q105 0 182.5 -30t128 -84.5t75 -130.5t24.5 -168v-273q0 -69 -24.5 -137.5t-75 -123t-128 -88.5t-182.5 -34q-93 0 -169 34t-129 88.5t-82 123t-29 137.5zM260 516q0 -69 18.5 -124t53 -93.5t84.5 -59t114 -20.5
t114 20.5t85 59t53.5 93.5t18.5 124v211q0 158 -69.5 241t-201.5 83q-62 0 -112 -17.5t-85 -56t-54 -99t-19 -145.5v-217z" />
    <glyph glyph-name="uni10EF" unicode="&#x10ef;" horiz-adv-x="999" 
d="M100 489v125q0 38 20.5 80t50.5 80.5t64 70.5t62 50l72 -84q-20 -15 -43 -38t-42 -49.5t-31.5 -55t-12.5 -54.5v-118q0 -44 17 -92.5t51 -89.5t85 -68t119 -27q75 0 125.5 20t81.5 57t44.5 87.5t14.5 112.5l2 108q0 75 -23 131.5t-59.5 104.5t-80 92t-85 94t-74.5 111
t-48 143h-310v121h299v2v227h129v-227v-2h351v-121h-338q16 -78 50.5 -134t76.5 -101.5t86.5 -87t81.5 -90.5t60.5 -112t23.5 -151v-108q0 -81 -26.5 -153t-78 -126t-127.5 -85.5t-176 -31.5q-102 0 -179 38.5t-129 97t-78 126.5t-26 127z" />
    <glyph glyph-name="uni10F0" unicode="&#x10f0;" horiz-adv-x="1020" 
d="M100 569h140q0 -97 14 -163.5t45.5 -108t83.5 -60t127 -18.5q130 0 200 51.5t70 157.5q0 52 -8.5 97.5t-27.5 79t-49.5 52.5t-73.5 19h-170v112h170q43 0 68.5 12t39 32.5t17.5 48t4 59.5q0 25 -6.5 48.5t-24 41.5t-48.5 28.5t-79 10.5h-172v121h172q40 0 65.5 18.5
t39.5 43t19 50.5t5 41q0 43 -21 72t-57 47.5t-83.5 28t-101 13.5t-109.5 4.5t-109 0.5v117q57 1 125 -1t137 -10.5t133.5 -26.5t114.5 -49t80 -77.5t30 -111.5q0 -30 -9 -61.5t-26.5 -60.5t-43.5 -54.5t-60 -43.5q34 -10 64.5 -26.5t54 -40.5t37.5 -55t14 -68
q0 -82 -44.5 -133t-119.5 -80q54 -14 90.5 -43.5t59.5 -67t33 -80.5t10 -83q0 -99 -31.5 -167t-86.5 -109t-130 -59t-162 -18q-101 0 -178 27t-128.5 84t-77.5 146t-26 212z" />
    <glyph glyph-name="uni10F1" unicode="&#x10f1;" horiz-adv-x="1020" 
d="M100 514v1116h129v-1122q0 -60 19.5 -112.5t56 -92t89 -62t118.5 -22.5q126 0 197 58t71 178q0 104 -36 156t-123 55l-109 2v110h109q43 0 73 12t49 32.5t28 48t9 59.5q0 25 -11 50t-34.5 44.5t-59 32t-83.5 12.5h-80v121h80q40 0 74.5 11t60 32.5t39.5 54t14 74.5
q0 34 -14.5 61.5t-46.5 46.5t-83 29t-124 10v121q78 0 151.5 -12t130.5 -42t91.5 -81t34.5 -129q0 -54 -15 -93t-42 -66.5t-63.5 -45.5t-78.5 -31q97 -15 148 -61.5t51 -140.5q0 -42 -9 -75t-31 -58.5t-59.5 -44t-93.5 -31.5q54 -15 90.5 -43t59.5 -63.5t33 -76.5t10 -81
q0 -99 -31.5 -167t-86.5 -110t-130 -60t-162 -18q-94 0 -169.5 26.5t-129 79t-82.5 130t-29 178.5z" />
    <glyph glyph-name="uni10F2" unicode="&#x10f2;" horiz-adv-x="1012" 
d="M100 49v121q53 0 106.5 7t97 19t71 27.5t28.5 32.5q-61 16 -116 66t-96.5 116t-66 139.5t-24.5 137.5v415q0 142 26 238t78 154t129 83t179 25q100 0 176.5 -25t128 -83t77.5 -154t26 -238v-415q0 -66 -24.5 -141.5t-68 -142t-102.5 -115t-127 -60.5q0 -11 19.5 -22
t49.5 -20.5t67 -17.5t73 -14t66 -9t47 -3v-121q-105 0 -180.5 23.5t-125.5 53t-74.5 55t-27.5 30.5q-54 -32 -105.5 -61t-102 -51.5t-101.5 -36t-103 -13.5zM240 715q0 -43 15.5 -90t40 -92.5t55 -87t60.5 -72.5t57 -49.5t44 -18.5q16 0 42 18.5t55.5 50t60 73t55 87
t40 92.5t15.5 89v415q0 39 -1 82t-8.5 85.5t-24 80.5t-46 67.5t-75.5 46.5t-113 17q-68 0 -114.5 -20t-77 -53.5t-46.5 -77t-23.5 -90t-9 -93t-1.5 -85.5v-375z" />
    <glyph glyph-name="uni10F3" unicode="&#x10f3;" horiz-adv-x="999" 
d="M100 440v88q0 35 11.5 68.5t31 64t45 56t52.5 43.5l73 -84q-40 -31 -56.5 -77t-16.5 -89v-47q0 -44 16.5 -87.5t50 -78.5t84.5 -56.5t119 -21.5q75 0 127 21.5t83.5 60t45.5 90t14 111.5v100q0 61 -16.5 118.5t-46 102t-71 71t-91.5 26.5h-195v120h189q38 0 79 34.5
t74.5 95.5t55.5 143.5t22 177.5h-510v-180h-141v299h791v-170q0 -39 -9.5 -85.5t-26 -93.5t-39.5 -92.5t-50 -83.5t-57.5 -65.5t-61.5 -38.5q70 -22 117 -58.5t75.5 -85t40 -108t11.5 -127.5v-100q0 -83 -27.5 -156t-80 -128t-129 -86.5t-173.5 -31.5q-94 0 -169.5 31
t-129 80t-82.5 109.5t-29 119.5z" />
    <glyph glyph-name="uni10F4" unicode="&#x10f4;" horiz-adv-x="1016" 
d="M100 483q0 48 28.5 110t86.5 120l88 -84q-25 -35 -44 -74t-19 -76q0 -62 20.5 -110t57 -81.5t86 -51t108.5 -17.5t108.5 12t85 38t55 68.5t19.5 102.5v74q0 64 -12 103t-37 60.5t-62 28.5t-87 7h-70v121h70q37 0 73 16.5t63.5 59.5t44.5 118t17 193q-29 -31 -69.5 -55
t-87 -41t-96 -26t-95.5 -9q-72 0 -133 15t-105 47t-69 81t-25 117q0 18 7.5 46t27.5 59t55 62.5t91 56.5t135 40.5t186 15.5v-121q-99 0 -168 -14t-112 -37.5t-62.5 -53.5t-19.5 -61q0 -24 8.5 -51t30 -50t58 -38.5t93.5 -15.5q48 0 109 23t126.5 58t131.5 78t123 83
q0 -175 -9.5 -293t-34 -193t-66.5 -114.5t-108 -57.5q59 -18 100.5 -42t67.5 -56t38 -72t12 -90v-59q0 -85 -30 -150.5t-84 -110.5t-129 -68.5t-165 -23.5q-89 0 -164.5 29.5t-130.5 81t-86 121.5t-31 151z" />
    <glyph glyph-name="uni10F5" unicode="&#x10f5;" horiz-adv-x="1061" 
d="M100 440q0 83 28 146.5t80.5 106t129 63.5t174.5 20l268 -2v166h-268q-81 0 -155.5 23t-131.5 66t-91 104.5t-34 138.5q0 78 28 143t80.5 112t129 73t174.5 26t174 -27t128 -75t79 -114t27 -144v-209h120l-2 -117h-118v-164l118 2v-116l-118 -7v-215q0 -78 -27 -141.5
t-79.5 -108.5t-128.5 -69.5t-173 -24.5q-98 0 -174.5 24t-129 68.5t-80.5 108t-28 143.5zM240 434q0 -53 21 -93.5t57.5 -68.5t86 -42.5t107.5 -14.5q77 0 128.5 17.5t82.5 48t44 71.5t13 88v215h-268q-58 0 -107.5 -9t-86 -34t-57.5 -68t-21 -110zM240 1272q0 -59 21 -99.5
t57.5 -66.5t86 -37.5t107.5 -11.5h268v209q0 42 -13 84.5t-44 77t-82.5 56t-128.5 21.5q-58 0 -107.5 -13t-86 -41t-57.5 -72.5t-21 -106.5z" />
    <glyph glyph-name="uni10F6" unicode="&#x10f6;" horiz-adv-x="1460" 
d="M100 848v403q0 97 16.5 168t57 118t108 70t169.5 23q54 0 94.5 -9t72.5 -29t59.5 -51.5t55.5 -76.5q25 45 47.5 76.5t52.5 51.5t72 29t105 9q101 0 168.5 -23t108 -69t57 -116.5t16.5 -164.5v-409q0 -92 -29 -162.5t-77 -117.5t-111.5 -71t-132.5 -24q-41 0 -69.5 4
t-52 14.5t-45 29.5t-48.5 48v-143q0 -90 -29 -152t-82 -101t-127.5 -56t-165.5 -17v111q55 0 104 13t86 40t59 67.5t22 94.5l4 819q0 135 -49.5 199.5t-165.5 64.5q-75 0 -117.5 -16.5t-63.5 -48t-25.5 -79t-4.5 -108.5v-409q0 -82 19 -133.5t51 -80.5t74 -39.5t87 -10.5
v-111q-81 0 -149 22.5t-117.5 69t-77 117t-27.5 166.5zM795 848q0 -84 23 -133.5t56 -76t70 -34.5t66 -8q60 0 100.5 15.5t65 47t35 78.5t10.5 111v397q0 64 -9 113.5t-32.5 83t-64.5 50.5t-105 17q-77 0 -120 -17t-64 -50t-26 -81t-5 -110v-403z" />
    <glyph glyph-name="uni10FB" unicode="&#x10fb;" horiz-adv-x="773" 
d="M80 98v160h158v-160h-158zM80 829v158h158v-158h-158zM535 461v157h158v-157h-158z" />
    <glyph glyph-name="uni2000" unicode="&#x2000;" horiz-adv-x="830" 
 />
    <glyph glyph-name="uni2001" unicode="&#x2001;" horiz-adv-x="1661" 
 />
    <glyph glyph-name="uni2002" unicode="&#x2002;" horiz-adv-x="830" 
 />
    <glyph glyph-name="uni2003" unicode="&#x2003;" horiz-adv-x="1661" 
 />
    <glyph glyph-name="uni2004" unicode="&#x2004;" horiz-adv-x="553" 
 />
    <glyph glyph-name="uni2005" unicode="&#x2005;" horiz-adv-x="415" 
 />
    <glyph glyph-name="uni2006" unicode="&#x2006;" horiz-adv-x="276" 
 />
    <glyph glyph-name="uni2007" unicode="&#x2007;" horiz-adv-x="276" 
 />
    <glyph glyph-name="uni2008" unicode="&#x2008;" horiz-adv-x="207" 
 />
    <glyph glyph-name="uni2009" unicode="&#x2009;" horiz-adv-x="332" 
 />
    <glyph glyph-name="uni200A" unicode="&#x200a;" horiz-adv-x="92" 
 />
    <glyph glyph-name="uni2010" unicode="&#x2010;" horiz-adv-x="737" 
d="M45 526v136h684v-136h-684z" />
    <glyph glyph-name="uni2011" unicode="&#x2011;" horiz-adv-x="737" 
d="M45 526v136h684v-136h-684z" />
    <glyph glyph-name="figuredash" unicode="&#x2012;" horiz-adv-x="1235" 
d="M0 530v105h1294v-105h-1294z" />
    <glyph glyph-name="endash" unicode="&#x2013;" horiz-adv-x="1235" 
d="M-24 500v98h1292v-98h-1292z" />
    <glyph glyph-name="emdash" unicode="&#x2014;" horiz-adv-x="2218" 
d="M-24 504v98h2335v-98h-2335z" />
    <glyph glyph-name="quoteleft" unicode="&#x2018;" horiz-adv-x="501" 
d="M143 1259q0 48 12.5 97.5t36 97.5t57.5 93.5t76 84.5l33 -33q-75 -83 -104.5 -146t-29.5 -118q0 -12 1.5 -23.5t3.5 -23.5q5 2 16 2h10q35 0 61.5 -20.5t26.5 -57.5q0 -25 -8.5 -43t-22 -30t-30.5 -17.5t-33 -5.5q-48 0 -77 33t-29 110z" />
    <glyph glyph-name="quoteright" unicode="&#x2019;" horiz-adv-x="501" 
d="M143 1149q37 42 62.5 77.5t41 67.5t22.5 61t7 57q0 12 -1 24t-3 24q-5 -2 -16 -2h-10q-35 0 -61.5 20.5t-26.5 57.5q0 25 8.5 43t22 30t30 17.5t33.5 5.5q48 0 77 -33t29 -110q0 -48 -12.5 -97.5t-36 -97.5t-57.5 -93.5t-76 -84.5z" />
    <glyph glyph-name="quotesinglbase" unicode="&#x201a;" horiz-adv-x="501" 
d="M143 -162q37 42 62.5 77.5t41 67.5t22.5 61t7 57q0 12 -1 24t-3 24q-5 -2 -16 -2h-10q-35 0 -61.5 20.5t-26.5 57.5q0 25 8.5 43t22 30t30 17.5t33.5 5.5q48 0 77 -33t29 -110q0 -48 -12.5 -97.5t-36 -97.5t-57.5 -93.5t-76 -84.5z" />
    <glyph glyph-name="quotedblleft" unicode="&#x201c;" horiz-adv-x="801" 
d="M143 1259q0 48 12.5 97.5t36 97.5t57.5 93.5t76 84.5l33 -33q-75 -83 -104.5 -146t-29.5 -118q0 -12 1.5 -23.5t3.5 -23.5q5 2 16 2h10q35 0 61.5 -20.5t26.5 -57.5q0 -25 -8.5 -43t-22 -30t-30.5 -17.5t-33 -5.5q-48 0 -77 33t-29 110zM443 1259q0 48 12.5 97.5t36 97.5
t57.5 93.5t76 84.5l33 -33q-75 -83 -104.5 -146t-29.5 -118q0 -12 1.5 -23.5t3.5 -23.5q5 2 16 2h10q35 0 61.5 -20.5t26.5 -57.5q0 -25 -8.5 -43t-22 -30t-30.5 -17.5t-33 -5.5q-48 0 -77 33t-29 110z" />
    <glyph glyph-name="quotedblright" unicode="&#x201d;" horiz-adv-x="801" 
d="M143 1149q37 42 62.5 77.5t41 67.5t22.5 61t7 57q0 12 -1 24t-3 24q-5 -2 -16 -2h-10q-35 0 -61.5 20.5t-26.5 57.5q0 25 8.5 43t22 30t30 17.5t33.5 5.5q48 0 77 -33t29 -110q0 -48 -12.5 -97.5t-36 -97.5t-57.5 -93.5t-76 -84.5zM443 1149q37 42 62.5 77.5t41 67.5
t22.5 61t7 57q0 12 -1 24t-3 24q-5 -2 -16 -2h-10q-35 0 -61.5 20.5t-26.5 57.5q0 25 8.5 43t22 30t30 17.5t33.5 5.5q48 0 77 -33t29 -110q0 -48 -12.5 -97.5t-36 -97.5t-57.5 -93.5t-76 -84.5z" />
    <glyph glyph-name="quotedblbase" unicode="&#x201e;" horiz-adv-x="801" 
d="M143 -162q37 42 62.5 77.5t41 67.5t22.5 61t7 57q0 12 -1 24t-3 24q-5 -2 -16 -2h-10q-35 0 -61.5 20.5t-26.5 57.5q0 25 8.5 43t22 30t30 17.5t33.5 5.5q48 0 77 -33t29 -110q0 -48 -12.5 -97.5t-36 -97.5t-57.5 -93.5t-76 -84.5zM443 -162q37 42 62.5 77.5t41 67.5
t22.5 61t7 57q0 12 -1 24t-3 24q-5 -2 -16 -2h-10q-35 0 -61.5 20.5t-26.5 57.5q0 25 8.5 43t22 30t30 17.5t33.5 5.5q48 0 77 -33t29 -110q0 -48 -12.5 -97.5t-36 -97.5t-57.5 -93.5t-76 -84.5z" />
    <glyph glyph-name="dagger" unicode="&#x2020;" horiz-adv-x="1085" 
d="M113 752v82l389 100v446h90v-454l381 -100v-82l-389 100v-946h-90v954z" />
    <glyph glyph-name="bullet" unicode="&#x2022;" horiz-adv-x="776" 
d="M152 844q0 51 21 95t56.5 77t82 52t98.5 19q53 0 100.5 -19.5t83.5 -52.5t57 -77t21 -94q0 -49 -21 -93.5t-57 -78t-83.5 -53t-100.5 -19.5q-52 0 -98.5 19.5t-82 53t-56.5 78t-21 93.5z" />
    <glyph glyph-name="ellipsis" unicode="&#x2026;" horiz-adv-x="1855" 
d="M338 154v161h164v-161h-164zM872 154v161h168v-161h-168zM1411 154v161h166v-161h-166z" />
    <glyph glyph-name="uni202F" unicode="&#x202f;" horiz-adv-x="332" 
 />
    <glyph glyph-name="guilsinglleft" unicode="&#x2039;" horiz-adv-x="737" 
d="M137 610l348 465h99l-301 -465l299 -458h-97z" />
    <glyph glyph-name="guilsinglright" unicode="&#x203a;" horiz-adv-x="737" 
d="M154 152l301 464l-301 459h96l338 -454l-338 -469h-96z" />
    <glyph glyph-name="uni205F" unicode="&#x205f;" horiz-adv-x="415" 
 />
    <glyph glyph-name="Euro" unicode="&#x20ac;" horiz-adv-x="1235" 
d="M-8 674q6 19 8.5 30.5t3.5 18t0.5 9.5t-0.5 5l2 11q0 2 2 4h129v202h-145q0 15 3 21t3 8q3 13 5 24q2 9 3 16.5t2 8.5l139 8q31 139 105 243.5t174 176.5t224 117t263 57q88 -6 174.5 -24.5t153.5 -46.5q-2 -31 -12 -66t-17 -63q-75 36 -151 57.5t-152 21.5
q-230 -2 -382 -123t-222 -350h803q-4 -15 -7 -24.5t-5.5 -18t-4 -18.5t-1.5 -25h-797v-202h760q2 0 2 2t-13 -6q-1 -5 -3 -16t-5 -27l-4 -15v-4.5t-1 -8.5q-2 -11 -718 -11q33 -144 96.5 -243t145.5 -151q78 -43 166 -65.5t170 -22.5q176 0 307 68v-137
q-66 -22 -140.5 -34.5t-146.5 -12.5q-127 10 -248.5 54.5t-221.5 119.5t-172 179.5t-107 244.5z" />
    <glyph glyph-name="trademark" unicode="&#x2122;" horiz-adv-x="2218" 
d="M256 1565v71h715v-71h-318v-744h-80v744h-317zM1153 821v815h166l274 -790q15 43 34.5 96.5t37.5 113.5t35.5 113.5t34.5 85.5l10 31q17 46 34 96.5t32.5 98t28 88t20.5 67.5h161v-815h-67v721q-13 5 -20.5 6t-14.5 1t-14 0.5t-19 4.5q-7 -15 -17.5 -44t-23.5 -65.5
t-27.5 -79t-29.5 -85.5q-14 -41 -27.5 -82t-25.5 -77l-21 -63t-14 -40q-17 -42 -33 -88.5t-29 -89.5l-6 -19h-78l-262 750q-17 -6 -27.5 -9t-18 -4.5t-12.5 -2t-11 -1.5v-733h-70z" />
    <glyph glyph-name="uni25FC" unicode="&#x25fc;" horiz-adv-x="1040" 
d="M0 0v1040h1040v-1040h-1040z" />
    </font>
</defs>
</svg>
